<?xml version="1.0" standalone="no"?>
<!DOCTYPE svg PUBLIC "-//W3C//DTD SVG 1.1//EN" "http://www.w3.org/Graphics/SVG/1.1/DTD/svg11.dtd" >
<svg xmlns="http://www.w3.org/2000/svg">
<metadata>Generated by IcoMoon</metadata>
<defs>
<font id="icomoon" horiz-adv-x="1024">
<font-face units-per-em="1024" ascent="960" descent="-64" />
<missing-glyph horiz-adv-x="1024" />
<glyph unicode="&#x20;" horiz-adv-x="512" d="" />
<glyph unicode="&#xe800;" glyph-name="speedometr2" d="M529.746 325.038c25.487 0 46.193 20.746 46.193 46.182 0 25.385-20.695 45.978-46.193 45.978l-209.285 153.498 163.072-202.445c1.536-24.115 21.678-43.213 46.213-43.213zM511.949 919.716c-282.726 0-511.908-228.506-511.908-510.474 0-105.052 31.857-202.711 86.497-283.832h63.898l1.382-1.567 1.812 1.567h2.447c-0.369 0.41-0.614 0.942-0.963 1.29l88.719 77.271-42.875 48.886-82.729-72.11c-39.301 67.185-62.198 145.111-62.198 228.485 0 3.963 0.451 7.608 0.553 11.571l101.765 0.092v64.942h-95.355c13.476 79.114 46.961 151.316 95.754 210.883l71.475-71.188 45.998 45.885-72.428 72.212c71.117 65.208 162.734 108.39 264.325 118.098l0.051-116.675 65.137 0.051v117.719c113.51-5.192 216.105-51.476 293.079-124.744l-74.107-73.994 46.070-45.896 71.916 71.69c45.967-58.225 77.681-127.846 90.665-204.073l-99.021-0.123v-64.87h105.462c0.102-3.963 0.645-7.608 0.645-11.622 0-83.026-22.641-160.532-61.676-227.451l-77.722 77.394-45.916-45.875 86.405-86.252c-0.297-0.492-0.799-1.075-1.188-1.587h69.652c54.477 81.121 86.385 178.729 86.385 283.781 0.082 282.010-229.161 510.515-512.010 510.515zM279.276-22.456h461.322v119.777h-461.322v-119.777z" />
<glyph unicode="&#xe801;" glyph-name="shop_bag" horiz-adv-x="931" d="M864.275 674.89c-1.555 16.505-15.9 29.137-33.112 29.137h-166.232v63.991c0 105.9-89.479 192.019-199.485 192.019-110.015 0-199.485-86.118-199.485-192.019v-63.991h-166.232c-17.222 0-31.558-12.623-33.122-29.137l-66.495-703.991c-0.829-8.937 2.253-17.799 8.583-24.427 6.293-6.656 15.183-10.445 24.529-10.445h864.414c9.356 0 18.237 3.789 24.548 10.445 6.237 6.628 9.421 15.49 8.574 24.427l-66.486 703.991zM332.456 768.019c0 70.609 59.671 128.009 132.99 128.009s132.99-57.4 132.99-128.009v-63.991h-265.979v63.991zM69.679 0.037l60.407 640h135.875v-72.862c-19.81-11.096-33.243-31.53-33.243-55.156 0-35.309 29.789-63.991 66.495-63.991s66.495 28.681 66.495 63.991c0 23.626-13.433 44.051-33.252 55.156v72.862h265.979v-72.862c-19.81-11.096-33.243-31.483-33.243-55.156 0-35.309 29.798-63.991 66.495-63.991 36.678 0 66.495 28.681 66.495 63.991 0 23.626-13.442 44.051-33.243 55.156v72.862h135.875l60.416-640h-791.552z" />
<glyph unicode="&#xe802;" glyph-name="chat2" d="M975.78 920.75c-13.24 12.984-29.655 19.958-48.466 19.958h-633.088c-38.789 0-70.154-29.655-70.154-68.393v-133.356h64.451v133.356c0 3.994 1.7 5.714 5.704 5.714h633.078c3.994 0 5.704-1.72 5.704-5.714v-455.363c0-3.994-1.71-5.704-5.704-5.704h-86.129v-63.263h86.129c18.821 0 35.226 6.963 48.466 19.948 13.558 13.24 20.541 29.635 20.541 49.009v455.373c0.010 19.384-6.973 35.185-20.531 48.435zM726.538 672.276h-633.068c-19.405 0-35.942-6.84-49.060-20.521s-19.958-30.208-19.958-49.582v-454.799c0-18.821 6.697-35.471 19.958-48.998 12.984-13.261 29.655-19.937 49.060-19.937h286.3l214.456-119.122v119.122h132.311c19.405 0 36.076 6.676 49.050 19.937 13.271 13.527 19.968 30.177 19.968 48.998v454.81c0 19.384-6.861 35.901-19.968 49.592-13.107 13.66-29.645 20.5-49.050 20.5zM732.252 147.384c0-3.983-1.71-5.683-5.714-5.683h-195.062v-75.254l-120.33 67.82-14.264 7.434h-303.411c-4.004 0-5.714 1.7-5.714 5.683v454.799c0 5.14 1.71 7.414 5.714 7.414h633.068c4.004 0 5.714-2.284 5.714-7.414v-454.799zM605.071 336.609h-227.574c-17.684 0-31.949-14.264-31.949-31.928s14.264-31.345 31.949-31.345h227.574c17.674 0 31.365 13.67 31.365 31.345s-13.701 31.928-31.365 31.928zM605.071 476.242h-390.113c-17.674 0-31.365-13.701-31.365-31.365s13.691-31.345 31.365-31.345h390.113c17.674 0 31.365 13.681 31.365 31.345s-13.701 31.365-31.365 31.365z" />
<glyph unicode="&#xe803;" glyph-name="car" d="M1017.999 585.626c-5.007 6.287-12.493 9.964-20.337 9.964h-99.697c-24.658 66.898-56.678 132.485-93.112 157.225-126.054 85.504-460.39 85.504-586.445 0-36.465-24.771-68.393-90.358-93.133-157.225h-99.707c-7.926 0-15.38-3.666-20.337-9.964-4.987-6.308-6.984-14.592-5.356-22.569l14.776-73.728c2.519-12.585 13.271-21.555 25.672-21.555h29.542c-28.518-33.915-42.342-76.605-42.516-119.327-0.195-52.787 19.241-100.495 54.794-134.226 0.389-0.328 0.788-0.635 1.147-0.952v-103.25c0-22.354 17.633-40.571 39.352-40.571h91.965c21.729 0 39.352 18.217 39.352 40.571v41.513h515.267v-41.513c0-22.354 17.592-40.571 39.352-40.571h91.945c21.699 0 39.363 18.217 39.363 40.571v101.233c37.693 35.604 55.736 84.572 55.951 133.509 0.154 44.165-14.295 88.463-44.493 123.054h31.498c12.462 0 23.224 8.98 25.682 21.545l14.797 73.759c1.577 7.926-0.369 16.179-5.325 22.508zM261.612 685.036c100.475 68.157 399.534 68.157 499.927 0 19.517-13.199 44.616-66.54 67.625-131.871h-635.126c22.948 65.311 48.056 118.641 67.574 131.871zM221.338 258.437c-42.732 0-77.414 35.727-77.414 79.79 0 44.093 34.683 79.811 77.414 79.811 42.793 0 77.414-35.717 77.414-79.811 0-44.052-34.621-79.79-77.414-79.79zM802.877 258.437c-42.732 0-77.414 35.727-77.414 79.79 0 44.093 34.683 79.811 77.414 79.811 42.793 0 77.425-35.717 77.425-79.811 0-44.052-34.683-79.79-77.425-79.79z" />
<glyph unicode="&#xe804;" glyph-name="car_search" horiz-adv-x="1403" d="M1356.379 761.007c-4.924 0-9.945-0.715-14.967-2.076l-56.839-15.584-59.041 143.122c-16.721 40.539-66.153 73.532-110.185 73.532h-552.469c-44.032 0-93.465-32.992-110.199-73.532l-58.943-142.911-56.124 15.388c-5.022 1.389-10.058 2.076-14.967 2.076-26.862 0-46.361-20.438-46.361-48.591v-33.357c0-1.459 0.112-2.876 0.224-4.306-12.989-9.651-25.376-20.27-37.032-31.87-62.871-62.576-97.49-145.773-97.49-234.258 0-71.736 22.766-139.993 64.877-196.608l-192.274-191.39c-19.456-19.358-19.456-50.751 0-70.109 9.721-9.679 22.472-14.532 35.209-14.532s25.488 4.853 35.223 14.532l192.288 191.376c56.881-41.914 125.447-64.582 197.52-64.582 88.906 0 172.495 34.465 235.352 97.042 20.284 20.171 37.579 42.545 51.761 66.504h413.514v-71.021c0-32.852 26.848-59.574 59.855-59.574h78.175c33.020 0 59.869 26.722 59.869 59.574v284.363c0 40.708-12.625 104.504-28.167 142.182l-9.539 23.089h7.224c33.006 0 59.855 26.722 59.855 59.588v33.357c0.014 28.139-19.498 48.577-46.347 48.577zM639.733 244.491c-44.046-43.85-102.61-68.005-164.92-68.005-62.282 0-120.86 24.155-164.906 68.005-44.046 43.836-68.313 102.119-68.313 164.135s24.253 120.299 68.313 164.149c44.046 43.836 102.61 67.991 164.906 67.991s120.874-24.155 164.92-67.991c44.046-43.85 68.313-102.133 68.313-164.149 0-62.001-24.253-120.285-68.313-164.135zM740.843 607.758c-9.314 12.302-19.526 24.057-30.664 35.139-62.871 62.576-146.446 97.042-235.352 97.042-0.617 0-1.22-0.042-1.852-0.056l52.981 128.463c10.002 24.253 39.74 44.102 66.083 44.102h494.143c26.343 0 56.082-19.835 66.083-44.102l89.284-216.499c10.016-24.253-3.353-44.102-29.696-44.102h-471.012zM1258.131 378.017c0-13.116-10.773-23.833-23.945-23.833h-169.605c-13.172 0-23.959 10.731-23.959 23.833v81.022c0 13.116 10.787 23.833 23.959 23.833h169.619c13.172 0 23.945-10.731 23.945-23.833v-81.022z" />
<glyph unicode="&#xe805;" glyph-name="label" d="M264.223 771.768c-39.834 0-72.284-32.43-72.284-72.223 0-39.875 32.44-72.305 72.284-72.305s72.253 32.43 72.253 72.305c-0.010 39.803-32.43 72.223-72.253 72.223zM264.223 670.628c-15.964 0-28.918 12.964-28.918 28.918 0 15.903 12.943 28.918 28.918 28.918 15.913 0 28.908-13.015 28.908-28.918 0-15.954-12.995-28.918-28.908-28.918zM660.142 345.201c4.219-4.188 9.759-6.318 15.309-6.318 5.581 0 11.090 2.13 15.329 6.318 8.489 8.53 8.489 22.211 0 30.669l-211.866 211.907c-8.458 8.448-22.19 8.448-30.638 0-8.489-8.52-8.489-22.2 0-30.659l211.866-211.917zM1011.261 409.467l-537.989 538.020c-9.298 9.277-22.313 13.906-35.267 12.462l-356.884-38.042c-20.111-2.13-36.076-17.971-38.451-38.052l-42.527-361.349c-1.526-13.148 3.052-26.337 12.431-35.748l537.989-538.020c8.489-8.499 19.558-12.698 30.659-12.698 11.080 0 22.2 4.198 30.638 12.698l399.401 399.401c8.131 8.141 12.698 19.159 12.698 30.679 0 11.448-4.567 22.518-12.698 30.648zM581.222 40.684l-492.483 492.524 36.014 306.145 301.865 32.164 492.677-492.698-338.074-338.135zM392.192 501.053c-8.458 8.438-22.159 8.438-30.638 0-8.468-8.458-8.479-22.221 0-30.669l211.886-211.855c4.219-4.25 9.759-6.38 15.319-6.38s11.1 2.13 15.319 6.38c8.479 8.458 8.479 22.159 0 30.597l-211.886 211.927z" />
<glyph unicode="&#xe806;" glyph-name="speedometr" d="M511.98 943.104c-272.998 0-495.073-222.095-495.073-495.114 0-272.978 222.075-495.084 495.073-495.084 272.978 0 495.114 222.095 495.114 495.084-0.010 273.009-222.136 495.114-495.114 495.114zM511.98 20.337c-235.807 0-427.663 191.836-427.663 427.653 0 235.827 191.857 427.684 427.663 427.684 235.827 0 427.684-191.846 427.684-427.684 0-235.807-191.857-427.653-427.684-427.653zM511.98 732.518c-156.867 0-284.498-127.642-284.498-284.518 0-156.867 127.621-284.498 284.498-284.498 26.163 0 47.34 21.207 47.34 47.35s-21.166 47.35-47.34 47.35c-104.653 0-189.798 85.146-189.798 189.798 0 104.673 85.135 189.819 189.798 189.819s189.819-85.146 189.819-189.819c0-26.153 21.207-47.35 47.36-47.35 26.163 0 47.34 21.197 47.34 47.35 0 156.877-127.621 284.518-284.518 284.518zM580.864 445.030c0.041 1.024 0.287 1.956 0.287 2.98 0 38.175-30.945 69.171-69.171 69.171-38.205 0-69.14-30.996-69.14-69.171 0-38.205 30.935-69.171 69.14-69.171 1.26 0 2.396 0.307 3.656 0.369l198.81-166.543c9.165-7.721 22.876-7.916 32.266 0.164 10.486 8.96 11.715 24.719 2.755 35.205l-168.602 196.997z" />
<glyph unicode="&#xe807;" glyph-name="chat" horiz-adv-x="1347" d="M686.565 611.759h-300.059c-16.559 0-30.019-13.42-30.019-30.060 0-16.573 13.46-30.006 30.019-30.006h300.072c16.573 0 30.019 13.406 30.019 30.006-0.013 16.64-13.447 30.060-30.033 30.060zM686.565 465.92h-300.059c-16.559 0-30.019-13.487-30.019-30.073s13.46-29.992 30.019-29.992h300.072c16.573 0 30.019 13.393 30.019 29.992s-13.447 30.073-30.033 30.073zM1347.153 434.499c0 200.96-186.166 366.754-423.707 386.075-97.603 85.625-235.291 139.183-387.773 139.183-295.262 0-535.431-200.408-535.431-446.801 0-131.597 69.834-256.377 188.834-340.83-16.168-55.498-46.835-88.037-46.808-88.037-20.669-20.588-28.241-51.658-19.752-81.219 0.701-2.331 1.536-4.756 2.506-6.993 12.611-29.48 41.593-48.573 73.876-48.573 116.345 0 212.386 62.154 277.612 121.789 20.359-1.819 40.125-2.843 59.176-2.843 49.408 0 97.199 5.726 142.659 16.249 61.817-23.714 129.374-36.163 198.575-36.163 20.264 0 41.661 1.253 63.731 3.651 56.98-54.151 143.441-113.785 248.118-113.785 19.645 0 37.282 11.507 44.921 29.427 0.485 1.159 0.903 2.331 1.28 3.571 5.241 18.338 0.741 37.376-11.547 49.731-0.445 0.404-39.949 41.553-54.636 111.023 112.074 73.391 178.365 185.856 178.365 304.546zM540.955 159.205c-24.468 0-50.701 1.913-77.959 5.524-19.766 2.412-39.801-4.217-53.976-18.701-34.614-35.139-104.232-85.8-169.876-97.347 14.713 31.798 59.284 70.737 65.347 116.844 3.449 25.977-8.771 51.577-31.003 65.051-113.664 68.392-178.85 172.167-178.85 284.672 0 196.339 200.192 356.177 446.329 356.177s446.316-159.825 446.316-356.177c-0.013-196.19-200.205-356.042-446.329-356.042zM1120.458 170.631c-10.321-6.171-16.007-17.907-14.403-29.804 8.96-67.409 38.131-116.898 57.304-143.050-79.71 9.337-146.863 60.982-190.801 104.947-6.589 6.589-15.993 9.836-25.088 8.488-24.724-3.139-48.438-4.81-70.535-4.81-32.889 0-65.293 3.261-96.741 9.351 172.584 74.28 290.91 224.377 290.91 397.204 0 86.959-30.033 168.138-81.704 236.854 171.695-39.208 297.782-165.659 297.782-315.311-0.027-104.852-60.793-201.068-166.723-263.869z" />
<glyph unicode="&#xe808;" glyph-name="application" horiz-adv-x="764" d="M545.761 213.305h-327.298c-10.63 0-19.25-8.971-19.25-20.014 0-11.027 8.612-20.006 19.25-20.006h327.283c10.614 0 19.242 8.979 19.242 20.006 0.008 11.042-8.628 20.014-19.227 20.014zM545.761 370.543h-327.298c-10.63 0-19.25-8.994-19.25-20.021 0-11.058 8.612-20.029 19.25-20.029h327.283c10.614 0 19.242 8.971 19.242 20.029 0.008 11.027-8.628 20.021-19.227 20.021zM545.761 685.048h-327.298c-10.63 0-19.25-8.994-19.25-20.021 0-11.042 8.612-20.014 19.25-20.014h327.283c10.614 0 19.242 8.971 19.242 20.014 0.008 11.027-8.628 20.021-19.227 20.021zM723.762 913.102h-110.676c-5.838 0-11.302-1.444-16.254-3.867-11.432 21.29-32.546 35.649-56.756 35.649h-315.973c-24.156 0-45.285-14.367-56.71-35.657-4.952 2.422-10.416 3.874-16.246 3.874h-110.699c-21.259 0-38.492-17.966-38.492-40.028v-881.947c0-22.131 17.232-40.020 38.492-40.020h683.314c21.282 0 38.492 17.889 38.492 40.020v881.947c-0.015 22.069-17.225 40.028-38.492 40.028zM224.103 904.857h315.973c15.062 0 27.289-14.252 27.289-31.782s-12.235-31.782-27.289-31.782h-315.973c-15.031 0-27.258 14.252-27.258 31.782s12.235 31.782 27.258 31.782zM685.278 31.163h-606.338v801.891h72.207c5.838 0 11.31 1.452 16.246 3.874 11.44-21.298 32.554-35.68 56.71-35.68h315.973c24.209 0 45.323 14.382 56.748 35.664 4.952-2.4 10.416-3.859 16.262-3.859h72.192v-801.891zM545.761 527.803h-327.298c-10.63 0-19.25-8.964-19.25-20.021 0-11.027 8.612-20.006 19.25-20.006h327.283c10.614 0 19.242 8.979 19.242 20.006 0.008 11.065-8.628 20.021-19.227 20.021z" />
<glyph unicode="&#xe809;" glyph-name="message" horiz-adv-x="1101" d="M545.043 949.121c-300.505 0-544.977-200.087-544.977-445.946 0-133.12 73.045-259.325 197.181-343.679-16.857-63.411-52.896-100.748-53.050-100.881-18.663-18.476-25.479-46.443-17.837-73.023 0.606-2.114 1.365-4.162 2.268-6.199 11.506-26.47 37.987-43.537 67.419-43.537 119.379 0 217.936 64.105 284.221 124.565 22.319-2.114 44.010-3.182 64.765-3.182 300.505 0 544.966 200.021 544.966 445.946 0.022 245.848-244.45 445.935-544.955 445.935zM545.043 160.267c-24.014 0-49.769 1.729-76.514 5.153-16.065 1.905-32.228-3.358-43.735-14.655-38.923-38.317-94.714-82.261-160.449-101.728 17.859 31.887 35.642 75.016 42.832 128.198 2.764 20.425-7.113 40.575-25.16 51.134-112.717 65.745-177.383 165.943-177.383 274.806 0 189.077 197.555 342.908 440.408 342.908 242.875 0 440.408-153.831 440.408-342.908 0-189.143-197.533-342.908-440.408-342.908zM775.851 448.738h-444.493c-14.435 0-26.151-11.55-26.151-25.798 0-14.182 11.704-25.721 26.151-25.721h444.493c14.446 0 26.151 11.539 26.151 25.721 0 14.27-11.715 25.798-26.151 25.798zM775.851 599.618h-444.493c-14.435 0-26.151-11.55-26.151-25.798 0-14.171 11.704-25.721 26.151-25.721h444.493c14.446 0 26.151 11.55 26.151 25.721 0 14.248-11.715 25.798-26.151 25.798z" />
<glyph unicode="&#xe80a;" glyph-name="car_sale" horiz-adv-x="1347" d="M1299.348 750.067c-5.080 0-10.294-0.741-15.495-2.183l-58.867-16.451-61.157 151c-17.314 42.779-68.514 77.568-114.122 77.568h-572.187c-45.608 0-96.808-34.789-114.136-77.568l-61.063-150.784-58.139 16.236c-5.214 1.442-10.415 2.183-15.495 2.183-27.823 0-48.020-21.558-48.020-51.24v-35.193c0-1.428 0.121-2.856 0.216-4.271-24.239-15.481-46.983-33.738-67.746-54.771-72.96-73.971-113.139-172.328-113.139-276.952 0-104.61 40.179-202.954 113.152-276.925s169.971-114.715 273.152-114.715 200.192 40.731 273.165 114.715c42.523 43.116 73.822 94.558 92.618 150.649h359.869v-74.914c0-34.654 27.81-62.855 62.006-62.855h80.977c34.183 0 62.006 28.2 62.006 62.855v299.978c0 42.954-13.096 110.255-29.184 149.976l-9.863 24.387h7.491c34.183 0 62.006 28.187 62.006 62.855v35.18c-0.027 29.683-20.224 51.24-48.047 51.24zM577.711 133.619c-51.133-51.847-119.094-80.397-191.407-80.397s-140.275 28.551-191.407 80.397c-51.119 51.833-79.279 120.724-79.279 194.021s28.16 142.215 79.279 194.048c51.119 51.82 119.094 80.371 191.407 80.371s140.275-28.551 191.407-80.371c51.119-51.847 79.279-120.751 79.279-194.048s-28.16-142.188-79.279-194.021zM674.493 588.396c-4.851 5.511-9.836 10.927-15.023 16.195-72.973 73.971-169.984 114.715-273.165 114.715-1.805 0-3.597-0.121-5.403-0.135l58.368 144.128c10.361 25.587 41.162 46.525 68.446 46.525h511.784c27.284 0 58.099-20.938 68.446-46.525l92.483-228.379c10.361-25.587-3.49-46.525-30.774-46.525h-475.163zM1197.608 346.045c0-13.824-11.17-25.142-24.819-25.142h-175.67c-13.649 0-24.805 11.318-24.805 25.142v85.491c0 13.824 11.156 25.128 24.805 25.128h175.67c13.649 0 24.819-11.304 24.819-25.128v-85.491zM456.515 339.779c-13.285 7.047-31.65 14.565-55.053 22.501-21.288 7.276-35.234 13.339-41.688 18.243-6.508 4.945-9.755 12.005-9.755 21.208 0 9.027 3.368 16.721 10.119 23.067 6.71 6.333 15.643 9.499 26.772 9.499 22.178 0 38.508-14.188 49.125-42.563l54.285 20.682c-12.962 41.391-41.485 64.525-85.531 69.43v33.792h-39.411v-33.779c-29.184-3.813-50.54-14.269-64.121-31.353-13.568-17.125-20.399-36.419-20.399-57.816 0-16.303 3.813-30.639 11.412-42.954 7.599-12.261 17.516-21.8 29.709-28.605 12.18-6.872 29.13-13.743 50.796-20.709 24.091-7.923 39.653-14.457 46.632-19.618 6.993-5.133 10.483-12.719 10.483-22.73 0-9.661-3.503-17.893-10.483-24.711-6.993-6.831-17.96-10.24-32.795-10.24-31.731 0-50.419 15.939-56.064 47.818l-60.941-14.754c12.315-50.728 44.207-78.565 95.757-83.469v-43.507h39.411v43.736c30.922 3.018 54.568 13.056 70.939 30.114 16.371 17.017 24.576 38.306 24.576 63.838 0 16.64-3.975 31.165-11.897 43.614-7.949 12.436-18.553 22.205-31.879 29.265z" />
<glyph unicode="&#xe80b;" glyph-name="phone" d="M511.98 960c-282.286 0-511.908-229.652-511.908-511.908 0-282.245 229.642-511.898 511.898-511.898 282.266 0 511.908 229.612 511.908 511.898 0 282.276-229.632 511.908-511.898 511.908zM511.98 18.688c-236.769 0-429.394 192.635-429.394 429.404 0 236.78 192.625 429.404 429.394 429.404 236.79 0 429.414-192.625 429.414-429.404 0-236.769-192.635-429.404-429.414-429.404zM680.837 636.59c-49.961 49.94-131.226 49.94-181.176 0l-176.138-176.108c-49.961-49.971-49.961-131.297 0-181.197l40.284-40.325c13.046-13.066 34.171-13.066 47.258 0l56.115 56.136c13.066 13.005 13.046 34.191 0 47.227l-20.163 20.142c-1.792 1.812-2.755 4.045-3.389 6.38-13.824 18.483-12.472 44.749 4.362 61.583l81.664 81.684c16.814 16.804 43.090 18.135 61.624 4.352 2.335-0.573 4.547-1.577 6.359-3.41l20.142-20.111c13.066-13.056 34.202-13.056 47.278 0l56.105 56.125c13.056 13.015 13.056 34.15 0 47.237l-40.325 40.284z" />
<glyph unicode="&#xe80c;" glyph-name="label-reverse" d="M979.784 920.893l-372.050 39.66-607.232-607.293 416.676-416.748 607.007 607.037-44.401 377.344zM301.036 304.026c-6.881 0-13.681 2.632-18.913 7.803-10.455 10.496-10.455 27.382 0 37.786l261.161 261.202c10.424 10.404 27.351 10.404 37.755 0 10.465-10.516 10.465-27.382 0-37.806l-261.14-261.181c-5.202-5.171-12.032-7.803-18.862-7.803zM687.923 466.104l-261.151-261.1c-5.202-5.243-12.032-7.864-18.893-7.864-6.84 0-13.67 2.621-18.883 7.864-10.455 10.445-10.455 27.32 0 37.724l261.161 261.202c10.424 10.414 27.3 10.414 37.765 0 10.435-10.445 10.435-27.412 0-37.827zM807.885 659.466c-49.101 0-89.037 39.956-89.037 89.088 0 49.060 39.956 89.016 89.037 89.016 49.101 0 89.098-39.987 89.098-89.016 0-49.121-39.997-89.088-89.098-89.088z" />
<glyph unicode="&#xe80d;" glyph-name="transmission" d="M512.002 960c-282.318 0-512.002-229.68-512.002-511.998s229.684-512.002 512.002-512.002 512.002 229.684 512.002 512.002-229.688 511.998-512.002 511.998zM512.010 49.438c-219.767 0-398.56 178.793-398.56 398.564s178.793 398.568 398.56 398.568c219.771 0 398.568-178.797 398.568-398.568s-178.801-398.564-398.568-398.564zM752.89 630.761c-17.701 0-32.056-14.35-32.056-32.056v-121.275h-96.481v121.275c0 17.701-14.35 32.056-32.056 32.056s-32.056-14.35-32.056-32.056v-121.275h-96.489v121.275c0 17.701-14.35 32.056-32.056 32.056-17.701 0-32.056-14.35-32.056-32.056v-121.275h-96.489v121.275c0 17.701-14.35 32.056-32.056 32.056-17.701 0-32.056-14.35-32.056-32.056v-140.131c0-31.094 19.274-45.251 37.185-45.251h123.415v-116.033c0-17.701 14.35-32.056 32.056-32.056 17.701 0 32.056 14.35 32.056 32.056v116.033h96.489v-116.033c0-17.701 14.35-32.056 32.056-32.056s32.056 14.35 32.056 32.056v116.033h96.481v-116.033c0-17.701 14.35-32.056 32.056-32.056 17.701 0 32.056 14.35 32.056 32.056v301.415c0 17.701-14.35 32.056-32.056 32.056z" />
<glyph unicode="&#xe80e;" glyph-name="fuel" d="M964.451 953.596c-16.685 11.423-39.466 7.151-50.889-9.533l-80.876-118.15c-0.142-0.205-0.283-0.415-0.42-0.625l-26.804-40.946c-19.228-29.367-29.445-63.444-29.542-98.547l-1.435-516.232c-0.024-8.445-6.902-15.298-15.357-15.298-0.015 0-0.029 0-0.044 0h-1.030c-5.531 0.015-9.162 2.841-10.837 4.525s-4.476 5.331-4.462 10.861l0.82 294.21c0.161 58.66-46.462 106.708-104.648 108.807l0.586 209.995c0.073 25.862-9.929 50.201-28.166 68.54-18.232 18.335-42.517 28.473-68.379 28.547l-400.552 1.123c-53.237 0-96.667-43.313-96.814-96.545l-1.987-712.686c-0.093-33.716 23.538-62.014 55.131-69.185l-0.078-28.6c-0.054-20.219 16.289-36.655 36.508-36.713l410.041-1.142c0.034 0 0.068 0 0.103 0 9.67 0 18.955 3.827 25.818 10.651 6.888 6.844 10.768 16.148 10.793 25.857l0.078 28.6c31.617 7 55.419 35.2 55.512 68.877l1.196 429.372c8.064-0.844 15.538-4.403 21.337-10.232 6.668-6.702 10.324-15.601 10.295-25.052l-0.82-294.21c-0.068-23.655 9.084-45.92 25.764-62.697 16.68-16.773 38.895-26.047 62.57-26.116h1.030c0.083 0 0.161 0 0.244 0 48.717 0 88.422 39.564 88.564 88.315l1.435 516.237c0.024 8.791 1.176 17.456 3.285 25.867 11.901-7.635 25.994-12.145 41.151-12.189 0.034 0 0.19 0.020 0.215 0 42.273 0 76.761 34.395 76.883 76.668 0.059 20.536-7.888 39.867-22.367 54.428-4.715 4.74-9.983 8.718-15.601 12.028l41.277 60.3c11.423 16.685 7.156 39.471-9.529 50.889zM505.976 745.822l-0.434-156.206-325.431 0.908 0.434 156.206 325.431-0.908zM934.064 776.165c0-22.242-18.030-40.272-40.272-40.272s-40.272 18.030-40.272 40.272c0 22.242 18.030 40.272 40.272 40.272s40.272-18.030 40.272-40.272z" />
<glyph unicode="&#xe80f;" glyph-name="road" d="M1009.358 194.254l-234.62 587.386c-3.001 7.128-7.877 13.316-14.622 18.562-6.757 5.258-13.891 7.881-21.389 7.881h-190.732c4.871 0 9.185-1.778 12.935-5.338 3.748-3.571 5.811-7.782 6.192-12.657l8.442-108.033c0.376-5.252-1.119-9.566-4.483-12.935-3.386-3.376-7.508-5.061-12.389-5.061h-93.397c-4.875 0-8.996 1.685-12.374 5.061-3.376 3.368-4.875 7.684-4.495 12.935l8.44 108.033c0.37 4.875 2.43 9.087 6.188 12.657 3.75 3.555 8.060 5.338 12.941 5.338h-190.737c-7.5 0-14.628-2.623-21.382-7.881-6.748-5.24-11.619-11.434-14.624-18.562l-234.624-587.386c-9.753-23.254-14.628-45.008-14.628-65.266 0-27.382 8.626-41.070 25.883-41.070h396.093c-4.875 0-8.996 1.779-12.376 5.34-3.376 3.573-4.875 7.782-4.495 12.665l11.248 144.015c0.374 4.883 2.438 9.098 6.188 12.665 3.748 3.569 8.066 5.335 12.941 5.335h153.029c4.883 0 9.185-1.766 12.947-5.335 3.75-3.567 5.813-7.782 6.186-12.665l11.262-144.015c0.384-4.883-1.133-9.091-4.497-12.665-3.372-3.561-7.5-5.34-12.382-5.34h396.087c17.251 0 25.885 13.688 25.885 41.070 0 20.25-4.883 42.006-14.642 65.266zM596.962 391.743c0.365-4.505-1.133-8.253-4.505-11.248-3.366-3.007-7.317-4.505-11.814-4.505h-137.285c-4.503 0-8.448 1.498-11.816 4.505-3.38 3.007-4.877 6.757-4.505 11.248v2.252l13.507 180.031c0.374 4.877 2.438 9.095 6.188 12.659s8.066 5.344 12.941 5.344h104.642c4.883 0 9.199-1.774 12.947-5.344 3.748-3.565 5.813-7.782 6.192-12.659l13.503-180.031v-2.252h0.006z" />
<glyph unicode="&#xe810;" glyph-name="search" d="M1001.28 70.144l-211.072 211.072c50.88 73.408 76.288 155.328 76.288 245.568 0 58.688-11.392 114.816-34.112 168.32-22.784 53.568-53.632 99.776-92.352 138.496s-84.864 69.568-138.432 92.288-109.696 34.112-168.384 34.112c-58.688 0-114.752-11.392-168.32-34.112-53.568-22.784-99.712-53.568-138.432-92.352-38.784-38.72-69.568-84.928-92.352-138.496-22.784-53.504-34.112-109.632-34.112-168.32 0-58.624 11.392-114.752 34.176-168.32 22.72-53.568 53.504-99.712 92.288-138.432 38.72-38.784 84.928-69.568 138.496-92.288 53.568-22.784 109.632-34.176 168.32-34.176 90.304 0 172.16 25.408 245.504 76.288l211.136-210.432c14.72-15.616 33.216-23.36 55.36-23.36 21.376 0 39.808 7.744 55.36 23.36 15.616 15.552 23.36 34.048 23.36 55.36 0 21.76-7.488 40.192-22.72 55.424zM628.032 331.968c-53.952-53.952-118.848-80.96-194.752-80.96s-140.8 27.008-194.752 80.96c-54.016 53.952-81.024 118.912-81.024 194.752 0 75.968 27.008 140.864 80.96 194.816s118.848 80.96 194.752 80.96 140.864-27.008 194.816-80.96c54.016-53.952 80.96-118.848 80.96-194.816-0.064-75.84-27.008-140.8-80.96-194.752z" />
<glyph unicode="&#xe811;" glyph-name="reset" horiz-adv-x="926" d="M463.189 864.232c-16.92 0-34.085-0.975-51.054-2.926v75.093c0 9.655-5.949 18.432-14.677 22.187-9.167 3.511-19.261 1.512-26.185-5.413l-164.035-164.815c-9.362-9.362-9.362-24.283 0-33.792l163.938-165.205c7.022-6.778 17.115-8.875 26.234-5.12 8.777 3.706 14.726 12.434 14.726 22.040v83.237c16.92 3.121 33.987 4.535 51.054 4.535 161.743 0 293.4-131.901 293.4-293.986 0-162.036-131.657-294.083-293.4-294.083-161.646 0-293.205 132.096-293.205 294.083 0 13.166-10.679 23.893-23.942 23.893h-121.807c-13.214 0-23.942-10.776-23.942-23.893 0-255.902 207.823-464.311 462.897-464.311 255.269 0 462.994 208.408 462.994 464.311s-207.726 464.165-462.994 464.165z" />
<glyph unicode="&#xe812;" glyph-name="phone2" d="M512 960c-282.312 0-512-229.688-512-512s229.688-512 512-512c46.376 0 92.312 6.188 140.938 20 98.5 43.562 152.25 151.062 128.438 255.938l1 1c15 14.938 21.75 43.75 15.062 63.876l-2.876 8.75c-6.75 20.124-29 41.124-49.5 46.75l-75.686 20.686c-20.5 5.562-49.75-1.938-64.81-17l-27.376-27.376c-99.5 26.938-177.562 105-204.438 204.5l27.376 27.376c15 15 22.5 44.25 16.938 64.812l-20.628 75.688c-5.562 20.5-26.688 42.75-46.812 49.5l-8.626 2.876c-20.188 6.75-49-0.062-64-15.126l-41-41c-7.312-7.25-12-28.062-12-28.126-1.376-130.126 49.626-255.438 141.626-347.5 91.75-91.75 216.626-142.69 346.312-141.562 0.312 0 5.062 1.062 10.688 2.75 0.376-62.938-35.31-121.75-91.124-146.688-38.69-10.686-78.878-16.124-119.502-16.124-247 0-448 201-448 448s201 448 448 448 448-201 448-448c0-73.624-17.5-144.062-52.062-209.25-8.25-15.624-2.25-35 13.312-43.25 15.688-8.376 35-2.312 43.25 13.25 38.938 73.5 59.5 156.25 59.5 239.25 0 282.312-229.688 512-512 512z" />
<glyph unicode="&#xe813;" glyph-name="question" d="M508.835 650.151c47.367 0 75.823-25.266 75.823-67.886 0-77.405-138.17-98.74-138.17-192.683 0-25.266 16.538-52.879 50.506-52.879 52.114 0 45.81 38.69 64.772 66.354 25.24 37.082 142.917 76.563 142.917 179.233 0 111.297-99.455 157.923-200.543 157.923-96.29 0-184.771-68.702-184.771-146.107 0-31.569 23.709-48.158 51.348-48.158 76.537-0.026 37.082 104.202 138.119 104.202zM564.905 220.583c0 35.551-29.221 64.746-64.746 64.746s-64.746-29.247-64.746-64.746c0-35.551 29.221-64.746 64.746-64.746s64.746 29.196 64.746 64.746zM1024 448c0 282.312-229.688 512-512 512s-512-229.688-512-512 229.688-512 512-512 512 229.662 512 512zM51.042 448c0 254.162 206.796 460.958 460.958 460.958s460.958-206.796 460.958-460.958c0-254.162-206.796-460.958-460.958-460.958s-460.958 206.796-460.958 460.958z" />
<glyph unicode="&#xe814;" glyph-name="steering_wheel" d="M512 960c-282.752 0-512-229.248-512-512s229.248-512 512-512 512 229.248 512 512-229.248 512-512 512zM512 832c166.624 0 307.36-107.328 360.512-256h-721.024c53.152 148.672 193.888 256 360.512 256zM512 384c-35.36 0-64 28.64-64 64s28.64 64 64 64 64-28.64 64-64-28.64-64-64-64zM128 448c174.88 0 316.512-168.512 319.488-377.504-180.992 31.008-319.488 187.872-319.488 377.504zM576.512 70.496c2.976 208.992 144.608 377.504 319.488 377.504 0-189.632-138.496-346.496-319.488-377.504z" />
<glyph unicode="&#xe900;" glyph-name="gear" d="M1020.382 504.695c-1.638 14.404-18.398 25.19-32.905 25.19-46.933 0-88.576 27.511-106.018 70.11-17.818 43.588-6.349 94.447 28.638 126.464 10.991 10.069 12.322 26.897 3.14 38.571-24.030 30.481-51.337 57.993-81.135 81.818-11.674 9.353-28.809 8.055-38.946-3.14-30.515-33.758-85.333-46.285-127.693-28.672-44.066 18.534-71.885 63.181-69.154 111.070 0.922 15.019-10.103 28.126-25.122 29.867-38.229 4.437-76.834 4.574-115.2 0.307-14.848-1.638-25.839-14.404-25.361-29.252 1.638-47.445-26.487-91.273-70.11-109.124-41.882-17.067-96.29-4.608-126.771 28.877-10.103 10.991-26.931 12.356-38.673 3.209-30.686-24.064-58.573-51.575-82.807-81.818-9.455-11.742-8.055-28.774 3.038-38.878 35.635-32.222 47.138-83.49 28.638-127.59-17.681-42.052-61.372-69.12-111.411-69.12-16.247 0.512-27.785-10.411-29.594-25.122-4.506-38.434-4.54-77.551-0.205-116.292 1.604-14.473 18.91-25.156 33.587-25.156 44.612 1.126 87.381-26.419 105.37-70.11 17.886-43.588 6.383-94.413-28.638-126.498-10.991-10.069-12.356-26.863-3.14-38.537 23.791-30.31 51.098-57.822 80.998-81.852 11.742-9.455 28.809-8.124 38.98 3.072 30.618 33.826 85.436 46.353 127.625 28.672 44.203-18.466 72.021-63.078 69.291-111.002-0.887-15.019 10.138-28.16 25.122-29.867 19.558-2.287 39.253-3.447 59.017-3.447 18.739 0 37.444 1.024 56.183 3.106 14.882 1.638 25.873 14.438 25.327 29.286-1.707 47.411 26.487 91.238 70.076 109.056 42.155 17.203 96.324 4.608 126.839-28.809 10.103-10.991 26.829-12.322 38.639-3.243 30.618 23.996 58.47 51.541 82.842 81.783 9.455 11.742 8.090 28.809-3.038 38.912-35.669 32.222-47.206 83.49-28.706 127.556 17.408 41.506 59.494 69.325 104.755 69.325l6.349-0.171c14.677-1.161 28.194 10.138 29.935 25.088 4.54 38.537 4.574 77.619 0.239 116.361zM511.556 153.020c-163.021 0-295.185 132.028-295.185 294.912 0 162.85 132.164 294.878 295.185 294.878 163.055 0 295.185-132.028 295.185-294.878s-132.13-294.912-295.185-294.912zM674.611 596.855c-7.066 17.169-27.921 31.164-46.524 31.164h-233.37c-18.603 0-39.492-13.995-46.524-31.164l-24.917-60.587-23.723 6.519c-2.116 0.58-4.233 0.853-6.315 0.853-11.332 0-19.593-8.67-19.593-20.617v-14.131c0-13.926 11.366-25.259 25.293-25.259h2.697l-4.028-9.762c-6.554-15.974-11.913-43.008-11.913-60.279v-120.559c0-13.892 11.332-25.225 25.293-25.225h33.041c13.926 0 25.293 11.332 25.293 25.225v30.14h284.16v-30.14c0-13.892 11.332-25.225 25.259-25.225h33.007c13.961 0 25.293 11.332 25.293 25.225v120.559c0 17.237-5.325 44.305-11.913 60.279l-3.994 9.762h3.038c13.961 0 25.293 11.332 25.293 25.259v14.131c0 11.947-8.26 20.617-19.593 20.617-2.082 0-4.198-0.307-6.349-0.853l-23.996-6.622-24.917 60.689zM341.367 497.391l37.717 91.75c4.233 10.308 16.794 18.705 27.887 18.705h208.725c11.127 0 23.689-8.397 27.921-18.705l37.717-91.75c4.198-10.308-1.434-18.705-12.561-18.705h-314.914c-11.059 0-16.691 8.431-12.493 18.705zM425.574 381.303c0-5.53-4.54-10.103-10.103-10.103h-71.646c-5.564 0-10.103 4.574-10.103 10.103v34.372c0 5.53 4.54 10.103 10.103 10.103h71.646c5.564 0 10.103-4.574 10.103-10.103v-34.372zM688.401 381.303c0-5.53-4.574-10.103-10.138-10.103h-71.68c-5.53 0-10.103 4.574-10.103 10.103v34.372c0 5.53 4.574 10.103 10.103 10.103h71.68c5.564 0 10.138-4.574 10.138-10.103v-34.372z" />
<glyph unicode="&#xe901;" glyph-name="key" d="M805.182 869.041c3.637 3.637 8.404 5.614 13.524 5.614s9.922-2.013 13.524-5.614l99.928-100.034c7.45-7.45 7.45-19.597 0-27.083l-16.631-16.631 38.63-38.665 16.631 16.631c28.743 28.778 28.743 75.635 0 104.377l-99.928 100.034c-13.948 13.983-32.415 21.61-52.153 21.61-19.703 0-38.206-7.662-52.153-21.61l-16.631-16.631 38.63-38.665 16.631 16.666zM66.666 147.615c-39.971-40.042-86.157-151.164-46.186-191.206 30.685-30.685 103.142-10.664 153.282 18.432 3.637 2.119 6.78 7.203 7.027 11.37 1.73 32.733 6.003 81.849 6.003 81.849 0 1.66 0.953 2.613 2.613 2.613l88.064 1.942c2.225 0.035 4.061 1.871 4.096 4.131l1.836 88.029c0 1.624 0.989 2.578 2.613 2.613 0 0 57.521 0.494 81.037 0.742 5.438 0.035 12.959 3.213 16.772 7.027 18.432 18.432 70.444 70.515 119.031 119.137l-144.843 144.949-291.346-291.628zM1003.379 598.705l-341.31 341.628c-9.604 9.64-22.281 14.477-34.887 14.477-12.641 0-25.318-4.838-34.922-14.477l-254.588-254.799c-51.624-51.694-51.624-135.521 0-187.215l224.15-224.362c25.812-25.812 59.639-38.771 93.502-38.771s67.655 12.924 93.502 38.771l254.552 254.87c19.315 19.279 19.315 50.564 0 69.879zM633.256 414.455c-6.886-6.921-15.466-11.617-24.788-13.7-3.637-0.812-7.415-1.271-11.193-1.271-13.665 0-26.447 5.297-36.052 14.972l-83.156 83.226c-9.604 9.604-14.936 22.457-14.936 36.052 0 3.884 0.459 7.733 1.306 11.405 2.119 9.287 6.744 17.796 13.63 24.647 9.604 9.64 22.422 14.972 36.052 14.972s26.447-5.297 36.052-14.972l83.121-83.227c9.64-9.604 14.972-22.457 14.972-36.052s-5.367-26.447-15.007-36.052zM883.853 565.725l-49.434-49.54c-31.991-32.026-83.897-32.026-115.889 0l-138.876 139.017c-31.991 32.026-31.991 83.968 0 115.994l49.47 49.54c11.97 11.97 31.356 11.97 43.29 0l11.511-11.511 199.962-200.174c11.97-11.97 11.97-31.356-0.035-43.326zM526.936 546.657c-3.425 3.425-8.015 5.297-12.888 5.297s-9.428-1.871-12.853-5.297-5.332-8.051-5.332-12.888 1.907-9.463 5.332-12.888l83.156-83.226c3.46-3.46 8.015-5.332 12.888-5.332 4.838 0 9.428 1.907 12.818 5.332 3.46 3.46 5.332 8.051 5.332 12.888s-1.907 9.463-5.332 12.888l-83.121 83.226z" />
<glyph unicode="&#xe902;" glyph-name="calendar" d="M662.195 763.136c17.434 0 31.514 14.106 31.514 31.488v126.054c0 17.434-14.106 31.514-31.514 31.514s-31.488-14.106-31.488-31.514v-126.054c0-17.408 14.106-31.488 31.488-31.488zM630.707 448v126.054h-126.054v-126.054h126.054zM63.462 202.163v434.918h693.274v-126.054h63.027v245.811c0 38.272-30.515 69.299-68.275 69.299h-26.24v-31.514c0-34.688-28.262-63.027-63.053-63.027-34.739 0-63.002 28.314-63.002 63.027v31.514h-378.163v-31.514c0-34.688-28.262-63.027-63.027-63.027s-63.027 28.339-63.027 63.027v31.514h-26.24c-37.734 0-68.275-31.027-68.275-69.299v-554.675c0-38.144 30.566-69.299 68.275-69.299h372.89v63.027h-372.89c-2.867 0-5.274 2.97-5.274 6.272zM158.003 763.136c17.434 0 31.514 14.106 31.514 31.488v126.054c0 17.434-14.080 31.514-31.514 31.514-17.408 0-31.514-14.106-31.514-31.514v-126.054c0-17.408 14.106-31.488 31.514-31.488zM252.544 574.054h-126.054v-126.054h126.054v126.054zM851.277 195.891h-94.515v94.541c0 17.408-14.106 31.488-31.488 31.488-17.459 0-31.514-14.106-31.514-31.488v-126.054c0-17.434 14.080-31.514 31.514-31.514h126.029c17.434 0 31.514 14.106 31.514 31.514s-14.106 31.514-31.539 31.514zM315.571 448h126.054v126.054h-126.054v-126.054zM756.762 448c-139.213 0-252.109-112.87-252.109-252.109 0-139.213 112.87-252.109 252.109-252.109 139.213 0 252.109 112.896 252.109 252.109-0.026 139.238-112.922 252.109-252.109 252.109zM756.762 6.835c-104.243 0-189.082 84.813-189.082 189.082s84.813 189.082 189.082 189.082 189.056-84.813 189.056-189.082c-0.026-104.269-84.813-189.082-189.056-189.082zM126.49 258.918h126.054v126.054h-126.054v-126.054zM315.571 258.918h126.054v126.054h-126.054v-126.054z" />
<glyph unicode="&#xe903;" glyph-name="oil" horiz-adv-x="1376" d="M1326.944 750.048c-5.184 0-10.496-0.736-15.808-2.176l-60.128-16.448-62.432 151.008c-17.696 42.784-70.016 77.568-116.576 77.568h-584.32c-46.592 0-98.88-34.784-116.576-77.568l-62.368-150.784-59.36 16.224c-5.312 1.44-10.656 2.176-15.84 2.176-28.416 0-49.024-21.536-49.024-51.264v-35.2c0-1.44 0.096-2.848 0.224-4.288-24.768-15.456-48-33.728-69.184-54.784-74.528-73.888-115.552-172.256-115.552-276.864 0-104.64 41.024-202.976 115.552-276.928 74.528-73.984 173.6-114.72 278.976-114.72s204.448 40.736 278.976 114.72c43.456 43.136 75.392 94.56 94.592 150.656h367.488v-74.912c0-34.656 28.448-62.88 63.328-62.88h82.688c34.912 0 63.328 28.224 63.328 62.88v299.968c0 42.976-13.344 110.24-29.792 149.984l-10.080 24.384h7.648c34.912 0 63.328 28.192 63.328 62.848v35.2c-0.032 29.696-20.672 51.2-49.088 51.2zM589.984 133.6c-52.224-51.808-121.632-80.384-195.456-80.384s-143.264 28.576-195.456 80.384c-52.224 51.84-80.96 120.736-80.96 194.048s28.736 142.176 80.96 194.016c52.224 51.84 121.632 80.384 195.456 80.384s143.264-28.544 195.456-80.384 80.96-120.704 80.96-194.016-28.736-142.208-80.96-194.048zM688.832 588.416c-4.96 5.504-10.048 10.912-15.36 16.192-74.528 73.984-173.6 114.688-278.976 114.688-1.856 0-3.68-0.096-5.504-0.128l59.616 144.16c10.592 25.6 42.016 46.496 69.888 46.496h522.688c27.84 0 59.328-20.896 69.888-46.496l94.432-228.416c10.592-25.6-3.552-46.496-31.392-46.496h-485.28zM1223.072 346.016c0-13.824-11.392-25.12-25.344-25.12h-179.392c-13.952 0-25.312 11.328-25.312 25.12v85.504c0 13.824 11.36 25.12 25.312 25.12h179.392c13.952 0 25.344-11.328 25.344-25.12v-85.504zM385.792 516.352c-2.496 0-14.944-0.864-15.232-18.016-0.544-31.136-28.672-66.272-55.872-100.288-31.2-39.008-63.424-79.296-60.64-119.904 4.864-70.048 62.88-120.896 137.984-120.896 3.776 0 7.616 0.128 11.424 0.416 37.952 2.56 72.192 17.696 96.448 42.56 25.088 25.76 37.504 60.256 34.976 97.056-4.288 61.408-111.552 219.072-149.088 219.072z" />
<glyph unicode="&#xe904;" glyph-name="diagnostic" horiz-adv-x="1312" d="M1303.68 601.504c-6.048 7.328-15.2 11.616-24.672 11.616h-121.248c-30.016 78.048-68.864 154.528-113.184 183.392-110.496 71.904-352.384 91.68-536.32 59.904v-95.36c159.744 31.168 391.072 16.704 483.68-43.584 23.712-15.392 54.24-77.632 82.208-153.856h-565.92v-186.752c50.56-51.872 68.128-106.656 68.128-184.384 0-35.584-0.448-67.616-1.216-97.408h426.080v-48.416c0-26.080 21.376-47.328 47.808-47.328h111.808c26.368 0 47.84 21.216 47.84 47.328v118.048c45.856 41.536 67.776 98.688 68.032 155.776 0.192 51.488-17.376 103.168-54.080 143.52h38.304c15.168 0 28.224 10.464 31.232 25.12l18.016 86.016c1.92 9.344-0.416 18.944-6.496 26.368zM1042.176 219.84c-52 0-94.112 41.664-94.112 93.056 0 51.424 42.112 93.088 94.112 93.088s94.080-41.664 94.080-93.088c0.032-51.392-42.144-93.056-94.080-93.056zM412.896 785.408c0 96.224-77.44 174.464-172.544 174.464-95.072 0-172.512-78.272-172.512-174.432v-437.856c-42.144-43.68-67.584-103.2-67.584-168.64 0-133.888 107.648-242.784 240-242.784 132.288 0 240.064 108.896 240.064 242.784 0 65.44-25.28 124.928-67.392 168.64v437.824zM413.248 178.944c0.032-96.768-77.408-175.488-173.056-175.488s-173.376 78.72-173.376 175.488c0 56.672 26.016 107.168 68.192 139.264v277.632h74.72c12.224 0 22.144 10.528 22.144 22.912 0 12.416-9.92 22.88-22.144 22.88h-74.72v55.296h74.72c12.224 0 22.144 9.728 22.144 22.080s-9.92 22.112-22.144 22.112h-74.72v44.32c0 59.136 46.944 107.2 105.344 107.2 58.432 0 105.376-48.064 105.376-107.232v-467.904c42.176-32.16 67.52-82.304 67.52-138.56zM295.776 276.896v265.216h-110.848v-265.216c-34.304-19.616-56.224-56.096-56.224-97.952 0-62.496 49.888-113.12 111.648-113.12 61.792 0 111.552 50.624 111.552 113.12 0.032 41.824-21.76 78.336-56.128 97.952z" />
<glyph unicode="&#xe905;" glyph-name="Tire_Wheel_Service2" horiz-adv-x="1050" d="M539.622 256.801c-14.494-14.1-14.52-37.074 0-51.253 14.546-14.152 37.941-14.152 52.487 0 14.52 14.178 14.572 37.153 0 51.253-14.52 14.152-37.967 14.152-52.487 0zM539.622 513.116c-14.494-14.205-14.494-37.153 0-51.305 14.572-14.126 37.967-14.152 52.487 0 14.572 14.152 14.572 37.074 0 51.2-14.467 14.178-37.967 14.205-52.487 0.105zM657.329 359.332c0 20.034-16.62 36.234-37.1 36.234-20.533 0-37.153-16.2-37.153-36.234 0-20.007 16.62-36.286 37.153-36.234 20.48-0.053 37.1 16.226 37.1 36.234zM471.775 540.528c0 20.034-16.647 36.234-37.127 36.234-20.454 0-37.1-16.2-37.1-36.234s16.647-36.234 37.1-36.234c20.48 0.026 37.127 16.226 37.127 36.234zM397.548 178.137c0-20.060 16.647-36.313 37.1-36.234 20.48 0 37.127 16.174 37.127 36.234 0 20.034-16.647 36.234-37.127 36.234s-37.1-16.226-37.1-36.234zM50.78 288.44c34.685-28.304 77.719-42.588 122.355-42.64-15.885 34.737-24.917 73.045-24.917 113.506 0 100.693 54.928 188.784 136.901 238.093 1.785 51.646 21.662 100.667 57.134 139.842 16.069 17.723 34.58 32.479 54.823 44.216-221.919-18.695-396.708-200.73-396.708-422.151 0-2.232 0.315-4.332 0.341-6.512 11.71-24.471 28.304-46.526 50.071-64.354zM363.835 290.199c39.148-38.203 102.479-38.282 141.653 0 39.201 38.177 39.122 100.089-0.026 138.293-39.122 38.229-102.453 38.229-141.575 0.079-39.175-38.282-39.175-100.194-0.053-138.371zM809.328 398.874c-29.092 23.762-63.961 38.256-100.851 42.299 8.166-25.889 12.551-53.353 12.551-81.867 0-74.699-29.749-144.962-83.837-197.737-20.716-20.244-44.006-36.811-69.186-49.835 1.392-44.505-10.896-88.51-36.181-126.818-11.264-17.093-24.707-32.269-39.805-45.502 94.182 12.13 181.327 53.353 249.672 120.097 71.601 69.921 115.134 160.138 125.033 257.287-11.264 31.534-30.405 60.022-57.397 82.078zM329.675 205.548c14.494 14.178 14.494 37.153 0 51.253-14.494 14.152-37.993 14.152-52.487 0-14.572-14.178-14.52-37.074 0-51.253 14.494-14.1 37.993-14.1 52.487 0zM501.707 777.807l0.079-1.497c-51.095-3.072-97.91-25.442-131.833-62.91-24.839-27.438-40.33-60.679-45.712-96.046 34.028 13.942 71.339 21.662 110.408 21.662 114.32 0 212.887-65.904 258.836-160.663 51.016-1.497 99.801-19.298 139.527-51.778 12.892-10.503 24.156-22.292 34.212-34.816-15.307 196.766-168.645 356.011-365.515 386.048zM530.222 95.875c-30.352-10.503-62.411-16.2-95.6-16.2-101.507 0-190.674 51.988-241.559 130.022-6.59-0.551-13.154-0.866-19.745-0.866-53.406 0-104.737 18.091-146.248 51.961-6.538 5.356-12.629 11.106-18.485 17.014 38.151-190.306 207.084-335.163 411.359-341.885 32.821 14.756 60.836 38.072 80.87 68.424 18.327 27.884 27.753 59.313 29.407 91.53zM422.334 960.053v-144.331c264.533 0 479.705-210.13 479.705-468.388h147.85c0 337.789-281.521 612.72-627.554 612.72zM277.215 513.090c-14.572-14.152-14.572-37.1 0-51.253 14.494-14.152 37.993-14.126 52.487 0 14.494 14.152 14.494 37.1 0 51.253-14.52 14.126-38.019 14.126-52.487 0zM249.121 395.566c-20.559 0-37.127-16.2-37.127-36.234 0-20.007 16.568-36.234 37.127-36.234 20.48 0 37.1 16.226 37.1 36.234-0.026 20.034-16.62 36.234-37.1 36.234z" />
<glyph unicode="&#xe906;" glyph-name="Tire_Wheel_Service" d="M846.956 224.148c-79.468 0-144.115-64.674-144.115-144.115s64.701-144.088 144.115-144.088c79.468 0 144.141 64.701 144.141 144.088-0.027 79.495-64.62 144.115-144.141 144.115zM846.956-15.117c-52.467 0-95.205 42.712-95.205 95.259 0 52.493 42.685 95.178 95.205 95.178s95.259-42.685 95.259-95.178c0-52.547-42.739-95.259-95.259-95.259zM560.883 297.688h170.846v24.98h90.893c132.177 0 201.27 93.992 201.27 209.947 0 82.54-35.22 153.681-103.074 188.012-18.648 138.483-94.989 239.427-189.090 239.427h-439.404c-94.1 0-170.442-100.918-189.171-239.4-67.853-34.25-103.047-105.499-103.047-188.039 0-63.434 20.803-120.185 61.197-158.666v-130.856h162.843v79.603h68.096v-24.926h170.873v-320.997h-82.648v-32.499h263.087v32.499h-82.648v320.916zM659.806 742.535c0 39.693 32.256 71.949 71.923 71.949 39.693 0 71.896-32.256 71.896-71.949h-143.818zM726.42 552.529c0-9-7.33-16.276-16.33-16.276h-396.261c-9 0-16.303 7.276-16.303 16.276 0 9.027 7.303 16.303 16.303 16.303h396.261c9 0 16.33-7.276 16.33-16.303zM915.213 532.615c0-37.699-30.585-68.231-68.204-68.231-37.672 0-68.258 30.531-68.258 68.231 0 37.672 30.585 68.231 68.258 68.231 37.619 0 68.204-30.558 68.204-68.231zM176.99 464.357c-37.645 0-68.204 30.531-68.204 68.231 0 37.672 30.585 68.231 68.204 68.231 37.672 0 68.258-30.558 68.258-68.231 0.027-37.699-30.531-68.231-68.258-68.231zM201.378 742.535c-16.061 0-31.178-1.455-45.406-4.096 20.211 99.355 74.402 172.706 136.354 172.706h439.377c61.898 0 116.116-73.378 136.273-172.706-10.105 1.913-20.776 2.91-31.852 3.503 0 0.243 0.081 0.431 0.081 0.62 0 57.667-46.861 104.529-104.502 104.529s-104.502-46.915-104.502-104.529l-425.822-0.027zM313.829 476.537c-9 0-16.303 7.276-16.303 16.276 0 9.027 7.303 16.276 16.303 16.276h396.261c9 0 16.33-7.276 16.33-16.276s-7.33-16.276-16.33-16.276h-396.261z" />
<glyph unicode="&#xe907;" glyph-name="auto_loan" horiz-adv-x="824" d="M298.583 569.057c0-24.002 19.081-43.433 42.633-43.433s42.633 19.456 42.633 43.433c0 24.002-19.106 43.433-42.633 43.433s-42.633-19.431-42.633-43.433zM469.117 612.489c-23.502 0-42.633-19.431-42.633-43.433s19.131-43.458 42.633-43.458c23.552 0 42.633 19.456 42.633 43.458s-19.056 43.433-42.633 43.433zM85.417 178.064v695.046h511.6v-361.172c29.896-3.022 58.493-10.54 85.267-21.654v382.826c0 48.003-38.188 86.89-85.267 86.89h-511.6c-47.079 0-85.267-38.887-85.267-86.89v-695.046c0-47.978 38.188-86.89 85.267-86.89h192.237c-9.915 27.398-16.209 56.495-18.257 86.89h-173.98zM469.117 786.245h-255.8c-23.527 0-42.633-19.456-42.633-43.433s19.106-43.433 42.633-43.433h255.8c23.552 0 42.633 19.456 42.633 43.433s-19.056 43.433-42.633 43.433zM213.317 482.142c-23.527 0-42.633-19.456-42.633-43.433s19.106-43.433 42.633-43.433c23.552 0 42.633 19.456 42.633 43.433s-19.081 43.433-42.633 43.433zM381.527 450.398c-5.095 18.182-20.855 31.744-40.311 31.744-23.527 0-42.633-19.456-42.633-43.433 0-19.081 12.288-34.841 29.097-40.66 15.735 19.656 33.942 37.064 53.847 52.349zM213.317 351.819c-23.527 0-42.633-19.406-42.633-43.433 0-23.977 19.106-43.408 42.633-43.408 23.552 0 42.633 19.431 42.633 43.408 0 24.027-19.081 43.433-42.633 43.433zM213.317 612.489c-23.527 0-42.633-19.431-42.633-43.433s19.106-43.458 42.633-43.458c23.552 0 42.633 19.456 42.633 43.458s-19.081 43.433-42.633 43.433zM566.347 440.807c-39.561 0-76.875-9.915-109.618-27.373-23.552-12.588-44.906-29.072-62.964-48.702-39.761-43.183-64.162-101.251-64.162-165.214 0-1.698 0-3.347 0.075-5.045 0.549-29.721 6.369-58.143 16.659-84.268 34.816-89.013 120.183-152.052 219.985-152.052 130.772 0 236.744 107.995 236.744 241.264s-105.947 241.389-236.719 241.389zM635.654 83.406c-11.888-12.788-28.148-21.179-46.779-24.601v-9.616c0-8.791-6.993-15.934-15.61-15.934h-8.517c-8.617 0-15.61 7.143-15.61 15.934v9.89c-10.29 1.998-20.13 5.345-28.897 9.99-10.39 5.445-19.456 14.311-27.024 26.424-5.070 7.992-8.642 17.358-10.889 27.823-1.848 8.791 3.946 17.458 12.638 18.981l8.442 1.548c8.042 1.424 15.81-3.721 17.858-11.838 2.448-9.541 5.62-16.983 9.641-22.228 8.966-11.714 23.752-18.782 39.661-18.782 2.697 0 5.445 0.2 8.042 0.574 11.314 1.698 21.504 7.243 28.522 15.435 7.493 8.692 11.214 19.531 11.214 32.418-0.075 10.939-2.672 19.731-7.842 26.224-9.516 11.913-25.9 16.983-40.585 20.38-18.232 4.196-34.691 8.492-51.175 17.833-10.565 5.994-18.882 14.486-24.576 25.175-5.719 10.59-8.617 22.778-8.617 36.215 0 23.927 8.417 43.557 25.076 58.343 9.84 8.791 23.302 14.885 38.537 17.733v13.037c0 8.791 6.993 15.934 15.61 15.934h8.517c8.617 0 15.61-7.143 15.61-15.934v-13.137c14.136-2.747 26.674-8.392 36.115-16.384 10.015-8.492 17.283-19.181 21.779-31.944 3.372-9.416-2.672-19.531-12.438-21.054l-8.217-1.249c-7.493-1.149-14.686 3.347-17.133 10.69-1.973 5.894-4.67 10.864-7.942 14.686-7.493 8.492-19.256 13.437-32.268 13.437-13.861 0-26.924-5.545-35.066-14.786-6.644-7.543-9.815-16.284-9.815-26.674 0-10.215 2.772-18.782 8.292-25.55 11.514-14.086 30.42-18.032 48.652-21.729 10.665-2.198 21.679-4.496 31.244-8.791 10.19-4.571 18.607-10.29 25.175-16.859 6.544-6.693 11.589-14.686 15.060-23.752 3.447-9.041 5.245-19.056 5.245-29.546-0.025-23.127-7.443-42.783-21.929-58.318z" />
<glyph unicode="&#xe908;" glyph-name="engine" horiz-adv-x="1426" d="M90.99 496.64h-91.063v-320.293h91.063v117.504h60.123v92.050h-60.123v110.738zM713.143 116.846l153.307 166.254-87.442 95.122 42.825 160.439-166.4-180.37 96.549-93.879-38.839-147.566zM1335.296 657.993v-418.158h91.063v418.158h-91.063zM1218.67 663.223v46.007h-358.29v158.574h156.965v92.050h-412.306v-92.050h164.242v-158.61h-277.175l-13.349-19.602-97.755-141.129h-184.027v-463.835l45.239-0.658 98.67-0.914 145.445-146.907h500.114l232.229 234.679v231.351h69.522v92.050h-69.522v168.997zM1127.57 208.859l-178.834-180.663h-424.741l-131.767 132.864-12.763 13.166-18.834 0.293-72.558 0.658v281.307h139.959l13.678 19.602 97.463 141.093h588.398v-408.32z" />
<glyph unicode="&#xe909;" glyph-name="speedometr3" horiz-adv-x="1289" d="M644.741 960c-356.087 0-644.741-308.072-644.741-673.678 0-133.651 38.722-246.291 105.055-350.322h271.019v107.823h-214.888c-38.874 77.559-53.741 154.359-53.741 242.536 0 304.166 241.019 565.855 537.297 565.855s537.259-261.689 537.259-565.893c0-88.14-14.829-164.978-53.703-242.536h-214.888v-107.785h268.591c66.37 104.031 107.482 216.671 107.482 350.322 0 365.606-288.654 673.678-644.741 673.678zM678.836 466.963c-11.264 1.82-22.604 3.072-33.944 3.072-74.259 0-148.442-33.754-188.264-102.893-59.354-103.083-22.149-239.844 80.593-299.349 33.868-19.646 70.997-24.007 107.444-24.007 74.259 0 148.252 38.647 188.075 107.785 44.904 78.052 33.564 167.595-18.167 234.724l71.87 277.276-207.607-196.608zM737.773 200.571c-19.115-33.223-54.651-48.962-93.032-48.962-18.963 0-37.129-0.076-53.703 9.557-51.314 29.696-68.911 95.725-39.329 147.191 19.115 33.261 54.841 53.931 93.26 53.931 18.925 0 36.902-4.892 53.476-14.488 51.352-29.734 68.911-95.763 39.329-147.228z" />
<glyph unicode="&#xe90a;" glyph-name="transmission2" d="M512 960c-282.775 0-512-229.225-512-512s229.225-512 512-512 512 229.225 512 512-229.225 512-512 512zM512 13.222c-240.128 0-434.778 194.65-434.778 434.778s194.65 434.808 434.778 434.808 434.778-194.68 434.778-434.808-194.65-434.778-434.778-434.778zM744.659 628.977c-19.516 0-35.358-15.42-35.358-34.394v-130.078h-84.51v130.078c0 18.974-15.842 34.394-35.388 34.394s-35.388-15.42-35.388-34.394v-130.078h-84.48v130.078c0 18.974-15.842 34.394-35.388 34.394-19.516 0-35.388-15.42-35.388-34.394v-130.078h-84.48v130.078c0 18.974-15.842 34.394-35.388 34.394-19.516 0-35.388-15.42-35.388-34.394v-150.287c0-33.34 21.293-48.52 41.050-48.52h114.206v-124.446c0-19.004 15.842-34.394 35.388-34.394s35.388 15.39 35.388 34.394v124.446h84.48v-124.446c0-19.004 15.842-34.394 35.388-34.394s35.388 15.39 35.388 34.394v124.446h84.51v-124.446c0-19.004 15.812-34.394 35.358-34.394s35.418 15.39 35.418 34.394v323.253c-0.030 18.974-15.872 34.394-35.418 34.394z" />
<glyph unicode="&#xe90b;" glyph-name="mail" d="M511.967 938.496c-270.435 0-490.43-220.028-490.43-490.463s220.028-490.43 490.43-490.43 490.463 219.962 490.463 490.43-220.028 490.463-490.463 490.463zM511.967 36.649c-226.833 0-411.384 184.551-411.384 411.384 0 226.866 184.518 411.384 411.384 411.384s411.417-184.518 411.417-411.384c0-226.833-184.551-411.384-411.417-411.384zM585.827 421.475c-20.942-15.459-46.807-34.387-73.959-34.387h-0.495c-27.153 0-53.050 18.927-73.959 34.387-40.597 29.63-82.449 57.773-123.772 85.917-9.216 6.21-17.672 13.444-25.171 21.669v-197.731c0-21.9 17.937-39.837 39.87-39.837h366.559c21.933 0 39.87 17.937 39.87 39.837v197.731c-7.498-8.225-15.922-15.459-24.906-21.669-41.621-28.143-83.406-56.518-124.036-85.917zM694.9 642.131h-366.559c-26.657 0-39.87-20.942-39.87-45.32 0-22.693 25.171-50.804 42.843-62.761 38.582-26.855 77.725-53.777 116.307-80.929 16.186-11.198 43.57-34.089 63.752-34.089h0.495c20.183 0 47.566 22.891 63.752 34.089 38.648 27.153 77.758 54.074 116.571 80.929 21.933 15.195 42.579 40.365 42.579 68.245 0 21.9-18.201 39.837-39.87 39.837z" />
<glyph unicode="&#xe90c;" glyph-name="pin" d="M511.967 938.496c-270.435 0-490.43-220.028-490.43-490.463s220.028-490.43 490.43-490.43 490.463 219.962 490.463 490.43-220.028 490.463-490.463 490.463zM511.967 36.649c-226.833 0-411.384 184.551-411.384 411.384 0 226.866 184.551 411.384 411.384 411.384 226.866 0 411.417-184.518 411.417-411.384 0-226.833-184.551-411.384-411.417-411.384zM512 701.126c-90.145 0-163.51-75.115-163.51-167.441 0-37.194 23.189-97.809 70.887-185.344 33.726-61.902 66.923-113.532 68.311-115.679l24.312-37.756 24.312 37.723c1.354 2.18 34.585 53.81 68.278 115.712 47.699 87.535 70.887 148.15 70.887 185.344 0 92.325-73.332 167.441-163.477 167.441zM512 448c-46.807 0-84.761 38.879-84.761 86.809s37.954 86.809 84.761 86.809 84.761-38.879 84.761-86.809-37.954-86.809-84.761-86.809z" />
<glyph unicode="&#xe90d;" glyph-name="delete" horiz-adv-x="1390" d="M137.435 335.726l155.136 155.136 155.136-155.136 103.497 103.424-155.209 155.136 155.209 155.136-103.497 103.424-155.136-155.136-155.136 155.136-103.497-103.424 155.209-155.136-155.209-155.136 103.497-103.424zM264.923 270.921c0 5.705 0.658 11.337 0.878 17.042-5.047 4.315-10.459 7.899-15.287 12.654-37.595-37.522-87.186-55.881-138.386-57.417 5.705-115.273 41.472-215.113 102.034-307.2h269.019l26.405 118.93h-195.73c-35.401 69.047-48.933 137.509-48.933 215.991zM749.787 922.697c-42.35 0-83.602-4.535-123.611-12.581 26.551-45.641 37.303-96.987 30.574-145.701 31.451 6.802 64 10.459 97.353 10.459 102.034 0 196.681-33.426 275.163-89.527l-242.688-242.981c-10.679 1.609-21.504 2.779-32.256 2.779-48.859 0-97.134-15.872-135.095-45.934-6.437-41.253-25.015-80.238-56.101-111.177-3.95-3.95-8.704-6.802-13.019-10.386-9.582-77.385 28.526-157.915 101.961-198.729 32.11-17.847 67.438-21.87 102.034-21.87 70.51 0 140.8 35.182 178.542 98.158 42.715 71.095 31.963 152.576-17.189 213.723l127.488 305.81c121.198-93.111 200.411-241.445 200.411-403.822 0-78.482-13.531-146.944-48.933-215.991h-195.73l17.701-118.93h266.679c65.755 100.279 106.642 208.75 106.642 337.554 0 352.329-286.501 649.143-639.927 649.143zM842.533 199.753c-18.213-30.208-51.931-44.544-88.357-44.544-17.993 0-35.255-0.073-50.981 8.704-48.713 26.99-65.463 87.113-37.376 133.998 18.213 30.281 52.078 49.079 88.576 49.079 17.92 0 35.035-4.462 50.761-13.166 48.713-27.063 65.39-87.186 37.376-134.071z" />
<glyph unicode="&#xe90e;" glyph-name="share" horiz-adv-x="945" d="M768 277.307c-40.645 0-77.824-13.233-107.756-35.367l-308.382 178.176c1.575 9.058 2.599 18.353 2.599 27.884s-1.024 18.826-2.599 27.884l308.382 178.176c29.932-22.134 67.19-35.367 107.756-35.367 97.831 0 177.231 76.406 177.231 170.614 0 94.287-79.399 170.693-177.231 170.693s-177.231-76.406-177.231-170.693c0-9.452 1.024-18.747 2.599-27.884l-308.303-178.176c-29.932 22.134-67.19 35.446-107.835 35.446-97.91 0-177.231-76.485-177.231-170.693s79.321-170.693 177.231-170.693c40.645 0 77.903 13.312 107.835 35.446l308.382-178.176c-1.654-9.137-2.678-18.353-2.678-27.884 0-94.208 79.399-170.693 177.231-170.693s177.231 76.485 177.231 170.693-79.399 170.614-177.231 170.614z" />
<glyph unicode="&#xe90f;" glyph-name="calculator" horiz-adv-x="829" d="M485.181 596.748c-24.235 0-43.91-19.651-43.91-43.91 0-24.21 19.675-43.886 43.91-43.886s43.861 19.675 43.861 43.886c0 24.259-19.602 43.91-43.861 43.91zM485.181 772.267h-263.314c-24.235 0-43.886-19.651-43.886-43.886 0-24.21 19.675-43.886 43.886-43.886h263.314c24.235 0 43.861 19.675 43.861 43.886 0 24.235-19.602 43.886-43.861 43.886zM90.21 157.891v702.147h526.629v-364.885c30.793-3.072 60.221-10.654 87.796-21.87v386.755c0 48.469-39.302 87.771-87.796 87.771h-526.629c-48.469 0-87.771-39.278-87.771-87.771v-702.171c0-48.469 39.302-87.796 87.771-87.796h197.876c-10.216 27.672-16.701 57.1-18.798 87.796h-179.078zM309.638 552.838c0-24.21 19.651-43.861 43.886-43.861 24.259 0 43.886 19.675 43.886 43.861 0 24.259-19.675 43.91-43.886 43.91-24.235 0-43.886-19.651-43.886-43.91zM221.867 465.067c-24.235 0-43.886-19.675-43.886-43.886s19.651-43.886 43.886-43.886c24.235 0 43.886 19.7 43.886 43.91s-19.651 43.861-43.886 43.861zM395.483 433.323c-5.291 18.261-21.992 31.744-41.96 31.744-24.235 0-43.886-19.675-43.886-43.886 0-19.237 12.507-35.426 29.745-41.35 16.384 20.090 35.328 37.937 56.101 53.492zM221.867 596.748c-24.235 0-43.886-19.651-43.886-43.91 0-24.21 19.675-43.886 43.886-43.886 24.235 0 43.886 19.675 43.886 43.886 0 24.259-19.651 43.91-43.886 43.91zM221.867 333.41c-24.235 0-43.886-19.627-43.886-43.886 0-24.21 19.675-43.861 43.886-43.861 24.235 0 43.886 19.651 43.886 43.861 0 24.259-19.651 43.886-43.886 43.886zM585.265 423.278c-40.741 0-79.141-10.021-112.835-27.648-24.259-12.702-46.226-29.379-64.805-49.225-40.936-43.618-66.048-102.254-66.048-166.888 0-1.731 0-3.389 0.098-5.12 0.561-30.037 6.558-58.734 17.14-85.114 35.816-89.941 123.709-153.624 226.45-153.624 134.607 0 243.688 109.129 243.688 243.761 0 134.656-109.105 243.858-243.688 243.858zM656.628 62.245c-12.239-12.898-28.989-21.382-48.152-24.844v-9.728c0-8.85-7.241-16.091-16.091-16.091h-8.753c-8.85 0-16.067 7.241-16.067 16.091v10.021c-10.606 2.024-20.699 5.388-29.745 10.094-10.703 5.51-20.041 14.458-27.843 26.697-5.218 8.094-8.85 17.53-11.166 28.111-1.926 8.85 4.047 17.627 12.995 19.163l8.655 1.536c8.29 1.438 16.262-3.755 18.383-11.947 2.511-9.655 5.754-17.14 9.899-22.455 9.24-11.825 24.478-18.944 40.838-18.944 2.779 0 5.583 0.195 8.29 0.561 11.654 1.731 22.138 7.314 29.355 15.604 7.704 8.753 11.581 19.749 11.581 32.744-0.098 11.093-2.804 19.944-8.094 26.502-9.801 12.020-26.673 17.14-41.789 20.602-18.798 4.242-35.742 8.582-52.663 18.018-10.874 6.071-19.456 14.653-25.307 25.429-5.9 10.679-8.85 22.991-8.85 36.571 0 24.186 8.631 44.032 25.795 58.953 10.118 8.85 23.966 15.019 39.668 17.896v13.19c0 8.875 7.217 16.091 16.067 16.091h8.753c8.85 0 16.091-7.217 16.091-16.091v-13.288c14.531-2.779 27.429-8.485 37.132-16.555 10.313-8.582 17.798-19.383 22.43-32.28 3.486-9.533-2.755-19.749-12.776-21.26l-8.485-1.268c-7.68-1.17-15.116 3.389-17.627 10.776-2.024 5.973-4.803 10.971-8.168 14.824-7.704 8.582-19.846 13.58-33.231 13.58-14.238 0-27.721-5.583-36.084-14.921-6.851-7.607-10.118-16.457-10.118-26.941 0-10.313 2.877-18.968 8.582-25.819 11.825-14.263 31.305-18.213 50.078-21.943 10.971-2.219 22.333-4.535 32.134-8.875 10.533-4.608 19.163-10.386 25.917-17.018 6.754-6.754 11.947-14.824 15.531-23.991 3.56-9.143 5.388-19.261 5.388-29.842-0.049-23.406-7.656-43.276-22.552-58.953z" />
<glyph unicode="&#xe910;" glyph-name="added" horiz-adv-x="1390" d="M717.239 960.073c-19.675 0-39.351-1.463-58.953-3.365v-141.531c108.325 3.803 242.688-14.409 352.695-101.522l-255.122-252.27c-11.264 1.609-22.601 2.853-33.865 2.853-74.094 0-148.114-31.89-187.904-97.207-59.246-97.426-22.089-226.67 80.457-282.917 33.792-18.505 70.875-22.674 107.227-22.674 74.094 0 147.895 36.498 187.611 101.888 44.837 73.728 33.573 158.354-18.066 221.842l133.925 317.44c127.415-96.695 210.578-250.661 210.578-419.182 0-81.481-12.288-151.259-49.518-223.013h-226.011v-124.416h316.343c69.266 104.082 113.079 216.503 113.079 350.208 0 365.714-301.129 673.865-672.475 673.865zM814.665 209.627c-19.090-31.451-54.565-46.299-92.891-46.299-18.871 0-37.010-0.073-53.614 8.997-51.2 28.087-68.754 90.478-39.278 139.118 19.163 31.451 54.784 50.981 93.111 50.981 18.871 0 36.864-4.608 53.394-13.678 51.2-28.087 68.754-90.478 39.278-139.118zM210.578 236.178h-162.158c8.558-111.762 43.886-209.627 104.155-300.178h333.312v124.416h-226.011c-29.769 57.344-44.471 113.737-49.298 175.762zM273.847 452.827l10.752-10.606 339.822 421.010-112.421 96.768-240.786-322.414-175.323 175.323-95.086-95.159 269.019-269.019 4.023 4.096z" />
<glyph unicode="&#xe911;" glyph-name="brochure" horiz-adv-x="843" d="M241.483 357.045h361.231v60.476h-361.231v-60.476zM843.294 116.706c0 174.984 0 484.653 0 484.653l-391.529 358.641c0 0-162.394 0-271.059 0-176.911 0-180.706-40.177-180.706-240.941v-606.148c0-196.367 134.927-176.911 159.985-176.911h485.978c212.45 0 197.331 141.252 197.331 180.706zM722.824 56.471h-602.353v783.059h361.412v-240.941h240.941v-542.118zM241.483 236.574h361.231v60.476h-361.231v-60.476zM241.483 477.515h240.76v60.476h-240.76v-60.476z" />
<glyph unicode="&#xe912;" glyph-name="add" horiz-adv-x="1390" d="M219.502 594.213v-147.675c0-39.058 28.965-70.802 64.585-70.802h16.165c35.694 0 64.585 31.744 64.585 70.802v147.675h148.48c39.058 0 70.802 28.965 70.802 64.658v16.165c0 35.621-31.744 64.585-70.802 64.585h-148.48v149.358c0 39.131-28.965 70.875-64.585 70.875h-16.165c-35.694 0-64.585-31.744-64.585-70.875v-149.431h-148.699c-39.058 0-70.802-28.891-70.802-64.512v-16.165c0-35.694 31.744-64.658 70.802-64.658h148.699zM717.239 960.073c-19.675 0-39.351-1.463-58.953-3.365v-141.531c108.325 3.803 242.688-14.409 352.695-101.522l-255.122-252.27c-11.264 1.609-22.601 2.853-33.865 2.853-74.094 0-148.114-31.89-187.904-97.207-59.246-97.426-22.089-226.67 80.457-282.917 33.792-18.505 70.875-22.674 107.227-22.674 74.094 0 147.895 36.498 187.611 101.888 44.837 73.728 33.573 158.354-18.066 221.842l133.925 317.44c127.415-96.695 210.578-250.661 210.578-419.182 0-81.481-12.288-151.259-49.518-223.013h-226.011v-124.416h316.343c69.266 104.082 113.079 216.503 113.079 350.208 0 365.714-301.129 673.865-672.475 673.865zM814.665 209.627c-19.090-31.451-54.565-46.299-92.891-46.299-18.871 0-37.010-0.073-53.614 8.997-51.2 28.087-68.754 90.478-39.278 139.118 19.163 31.451 54.784 50.981 93.111 50.981 18.871 0 36.864-4.608 53.394-13.678 51.2-28.087 68.754-90.478 39.278-139.118zM210.578 236.178h-162.158c8.558-111.762 43.886-209.627 104.155-300.178h333.312v124.416h-226.011c-29.769 57.344-44.471 113.737-49.298 175.762z" />
<glyph unicode="&#xe913;" glyph-name="remove" horiz-adv-x="1390" d="M513.39 594.213c39.058 0 70.802 28.965 70.802 64.658v16.165c0 35.621-31.744 64.585-70.802 64.585h-442.514c-39.131-0.073-70.875-28.965-70.875-64.585v-16.165c0-35.694 31.744-64.658 70.802-64.658h442.587zM210.578 236.178h-162.158c8.558-111.762 43.886-209.627 104.155-300.178h333.312v124.416h-226.011c-29.769 57.344-44.471 113.737-49.298 175.762zM717.239 960.073c-19.675 0-39.351-1.463-58.953-3.365v-141.531c108.325 3.803 242.688-14.409 352.695-101.522l-255.122-252.27c-11.264 1.609-22.601 2.853-33.865 2.853-74.094 0-148.114-31.89-187.904-97.207-59.246-97.426-22.089-226.67 80.457-282.917 33.792-18.505 70.875-22.674 107.227-22.674 74.094 0 147.895 36.498 187.611 101.888 44.837 73.728 33.573 158.354-18.066 221.842l133.925 317.44c127.415-96.695 210.578-250.661 210.578-419.182 0-81.481-12.288-151.259-49.518-223.013h-226.011v-124.416h316.343c69.266 104.082 113.079 216.503 113.079 350.208 0 365.714-301.129 673.865-672.475 673.865zM814.665 209.627c-19.090-31.451-54.565-46.299-92.891-46.299-18.871 0-37.010-0.073-53.614 8.997-51.2 28.087-68.754 90.478-39.278 139.118 19.163 31.451 54.784 50.981 93.111 50.981 18.871 0 36.864-4.608 53.394-13.678 51.2-28.087 68.754-90.478 39.278-139.118z" />
<glyph unicode="&#xe914;" glyph-name="add_car" horiz-adv-x="1352" d="M1304.248 750.080c-5.12 0-10.317-0.734-15.573-2.183l-59.102-16.461-61.363 150.992c-17.389 42.776-68.782 77.573-114.553 77.573h-574.329c-45.79 0-97.183-34.797-114.572-77.573l-61.285-150.798-58.368 16.249c-5.217 1.449-10.453 2.183-15.553 2.183-27.918 0-48.205-21.543-48.205-51.239v-35.183c0-1.43 0.116-2.84 0.213-4.289-24.325-15.495-47.162-33.734-68.009-54.774-73.226-73.96-113.548-172.302-113.548-276.924 0-104.603 40.322-202.965 113.567-276.905 73.245-73.979 170.622-114.727 274.181-114.727s200.955 40.728 274.2 114.727c42.68 43.085 74.095 94.556 92.971 150.625h361.24v-74.887c0-34.661 27.918-62.87 62.232-62.87h81.282c34.314 0 62.232 28.208 62.232 62.87v299.955c0 42.969-13.138 110.244-29.29 149.987l-9.912 24.383h7.535c34.294 0 62.232 28.189 62.232 62.85v35.183c-0.019 29.696-20.287 51.239-48.225 51.239zM579.893 133.632c-51.316-51.857-119.557-80.394-192.126-80.394s-140.81 28.556-192.126 80.394c-51.316 51.838-79.582 120.735-79.582 194.019 0 73.322 28.266 142.22 79.582 194.058s119.557 80.374 192.126 80.374 140.81-28.556 192.126-80.374 79.582-120.735 79.582-194.058c0-73.284-28.266-142.201-79.582-194.019zM677.038 588.404c-4.869 5.506-9.873 10.916-15.090 16.191-73.245 73.979-170.622 114.727-274.181 114.727-1.816 0-3.613-0.116-5.429-0.135l58.581 144.133c10.395 25.6 41.327 46.524 68.705 46.524h513.739c27.378 0 58.31-20.924 68.685-46.524l92.856-228.371c10.395-25.581-3.497-46.524-30.894-46.524h-476.971zM1202.118 346.044c0-13.834-11.206-25.136-24.904-25.136h-176.341c-13.679 0-24.885 11.303-24.885 25.136v85.494c0 13.834 11.206 25.136 24.885 25.136h176.341c13.698 0 24.904-11.303 24.904-25.136v-85.494zM425.057 496.302h-96.604v-115.925h-115.925v-96.604h115.925v-115.925h96.604v115.925h115.925v96.604h-115.925v115.925z" />
<glyph unicode="&#xe915;" glyph-name="air_conditioning" horiz-adv-x="936" d="M891.143 252.621l-75.542 43.798 60.416 33.148c21.182 11.615 28.643 37.742 16.823 58.427-11.878 20.626-38.619 27.97-59.831 16.413l-104.77-57.403-97.807 56.671 9.216 15.945 55.559-0.644c14.98-0.205 27.209 11.498 27.385 26.068s-11.761 26.536-26.712 26.712l-55.618 0.614-8.806 15.974 99.474 54.506 102.985-59.597c6.846-4.008 14.395-5.91 21.826-6.027 15.214-0.176 30.047 7.344 38.356 21.007 12.347 20.392 5.5 46.694-15.36 58.807l-59.187 34.319 76.39 41.896c21.153 11.586 28.672 37.771 16.852 58.397-11.937 20.656-38.619 27.999-59.889 16.443l-76.624-42.013 0.819 67.73c0.322 23.698-19.076 43.154-43.388 43.418-24.225 0.293-44.149-18.695-44.471-42.394l-1.463-117.233-97.982-53.658-9.45 17.174 27.092 44.5c7.578 12.551 3.365 28.731-9.45 36.162-12.844 7.49-29.462 3.306-37.098-9.187l-27.034-44.442-20.070 0.234 1.404 109.363 104.536 57.256c21.153 11.586 28.672 37.712 16.852 58.368-11.908 20.656-38.619 28.028-59.86 16.443l-60.299-33.031 1.053 85.548c0.234 23.64-19.134 43.096-43.359 43.359-24.313 0.293-44.237-18.695-44.5-42.335l-0.995-85.577-59.538 34.465c-20.86 12.054-47.748 5.383-60.153-15.009-12.376-20.363-5.53-46.665 15.331-58.778l103.102-59.714-1.375-109.363-19.866 0.263-25.776 44.968c-7.344 12.727-23.786 17.232-36.835 10.094-13.019-7.109-17.642-23.201-10.386-35.957l25.307-44.003-10.152-17.584-95.846 55.53 1.492 117.058c0.293 23.698-19.134 43.125-43.447 43.359-24.283 0.322-44.149-18.666-44.442-42.335l-0.848-67.467-75.454 43.681c-20.86 12.083-47.806 5.413-60.182-14.95-12.347-20.392-5.559-46.694 15.331-58.807l75.366-43.71-60.27-33.031c-21.182-11.586-28.643-37.771-16.823-58.397 7.987-13.868 22.645-21.738 37.888-21.884 7.431-0.117 15.009 1.668 21.943 5.5l104.565 57.315 97.748-56.671-9.157-15.887-55.325 0.614c-14.95 0.176-27.209-11.498-27.414-26.097-0.146-14.541 11.761-26.478 26.741-26.683l55.296-0.644 8.719-16.267-98.918-54.243-103.161 59.772c-20.919 12.083-47.806 5.354-60.211-15.009-12.317-20.363-5.471-46.665 15.36-58.778l59.451-34.494-76.449-41.896c-21.094-11.586-28.643-37.742-16.794-58.368 7.987-13.897 22.645-21.767 37.859-21.943 7.373-0.088 15.038 1.697 21.972 5.5l76.478 41.896-0.848-67.525c-0.293-23.728 19.134-43.154 43.418-43.388 24.225-0.322 44.149 18.666 44.471 42.364l1.463 117.029 96.783 53.043 9.655-17.935-26.156-42.949c-7.578-12.551-3.394-28.701 9.45-36.162 4.242-2.487 8.894-3.657 13.458-3.686 9.362-0.146 18.52 4.506 23.611 12.902l26.185 43.037 20.773-0.263-1.317-108.017-104.331-57.11c-21.153-11.586-28.672-37.712-16.823-58.397 7.929-13.868 22.616-21.738 37.829-21.914 7.431-0.088 14.98 1.697 21.972 5.5l60.123 32.914-1.053-85.548c-0.293-23.698 19.134-43.125 43.388-43.388 24.254-0.322 44.208 18.666 44.5 42.364l1.083 85.811 59.685-34.611c20.948-12.112 47.894-5.383 60.27 14.98 12.347 20.392 5.442 46.724-15.419 58.807l-103.307 59.802 1.317 107.813 20.89-0.234 25.044-43.681c4.915-8.572 13.926-13.371 23.318-13.517 4.564-0.029 9.245 1.053 13.546 3.394 13.019 7.168 17.642 23.23 10.357 35.957l-25.6 44.559 9.947 17.145 96.256-55.764-1.463-116.853c-0.293-23.698 19.134-43.125 43.359-43.388 24.283-0.263 44.237 18.695 44.5 42.364l0.848 67.35 75.366-43.739c6.875-3.979 14.424-5.939 21.884-5.998 15.214-0.176 30.047 7.344 38.356 21.007 12.317 20.334 5.471 46.636-15.389 58.719zM502.491 394.576h-68.959l-27.034 53.453 27.034 53.424h68.959l27.121-53.424-27.121-53.453z" />
<glyph unicode="&#xe916;" glyph-name="auto_electric" horiz-adv-x="889" d="M417.603 554.146l200.461 252.605-95.232 0.027 48.317 153.277-213.342-236.49 102.184-0.135-42.388-169.283zM572.578 571.176v-81.327h185.317v81.327c0 5.875-4.851 10.671-10.698 10.671h-163.867c-5.901 0.027-10.752-4.797-10.752-10.671zM879.993 445.548h-870.75c-5.012 0-9.108-4.069-9.108-9.081v-56.536c0-5.012 4.096-9.081 9.108-9.081h14.255v-411.864c0-12.692 10.429-23.040 23.148-23.040h795.944c12.746 0 23.148 10.375 23.148 23.040v411.891h14.228c5.039 0 9.135 4.069 9.135 9.081v56.536c0.027 4.985-4.069 9.054-9.108 9.054zM314.287 168.448h-180.547v57.667h180.52v-57.667zM754.257 168.448h-72.893v-72.488h-57.91v72.488h-72.866v57.667h72.866v72.542h57.91v-72.542h72.893v-57.667zM331.156 571.176c0 5.875-4.824 10.671-10.698 10.671h-163.894c-5.875 0-10.698-4.824-10.698-10.671v-81.327h185.317v81.327z" />
<glyph unicode="&#xe917;" glyph-name="brake" horiz-adv-x="996" d="M305.982 426.966c0-118.147 95.619-213.795 213.573-213.795 117.981 0 213.601 95.647 213.601 213.795 0 118.037-95.619 213.767-213.601 213.767-117.954 0-213.573-95.73-213.573-213.767zM519.555 487.549c32.768 0 59.364-26.624 59.364-59.392 0-32.823-26.596-59.392-59.364-59.392-32.713 0-59.337 26.596-59.337 59.392 0 32.768 26.624 59.392 59.337 59.392zM515.792 710.947c0.609 0 0.36 225.612-0.304 225.612-278.777 0-504.832-227.882-505.911-509.371l223.73-0.028c1.024 156.893 127.059 283.786 282.486 283.786zM424.379 847.222c19.622-0.028 35.591-15.941 35.591-35.674 0-19.622-15.969-35.591-35.619-35.591-19.622 0-35.591 15.941-35.591 35.591 0 19.733 15.969 35.674 35.619 35.674zM134.808 491.672c-19.677 0-35.591 15.886-35.591 35.591 0 19.677 15.914 35.646 35.646 35.646 19.594-0.028 35.536-15.941 35.536-35.646-0.028-19.677-15.941-35.591-35.591-35.591zM563.421 892.25c0.028-1.55 0.028-2.989 0.028-4.594 0.083-19.816 0.111-43.506 0.166-67.030 197.632-22.030 351.896-190.077 351.896-393.659 0-218.527-177.622-396.288-395.956-396.288-202.282 0-369.332 152.742-392.801 349.018h-71.929c23.746-235.686 223.121-420.283 464.73-420.283 257.605 0 467.165 209.754 467.165 467.553 0 242.992-186.202 443.060-423.299 465.283z" />
<glyph unicode="&#xe918;" glyph-name="oil-add" horiz-adv-x="2355" d="M2158.080 642.662c27.034-17.51 57.6-15.77 75.622 7.014 18.022 22.63 3.789 58.317-33.331 89.907-37.069 31.488-97.741 46.541-185.549 17.357-116.941-38.912-649.984-201.83-649.984-201.83s-0.205 11.264-0.205 15.206c0 63.949-44.493 95.027-112.486 95.027h-228.045v133.478h122.061c8.806 0 16.026 7.219 16.026 16.026v129.126c0 8.806-7.219 16.026-16.026 16.026h-402.637c-8.806 0-16.026-7.219-16.026-16.026v-129.075c0-8.858 7.219-16.026 16.026-16.026h122.061v-133.478h-254.925v32.512c0 33.075-21.35 62.413-52.787 72.55l-458.035 109.005c-23.194 7.424-48.64 3.482-68.403-10.854s-31.437-37.325-31.437-61.696v-327.475c0-28.774 16.179-55.040 41.83-68.045l416.102-192.154v-189.082c0-51.763 42.342-94.054 94.054-94.054h866.765c30.976 0 60.058 8.909 103.834 60.416 43.827 51.507 519.936 616.294 519.936 616.294 40.755 47.923 77.056 54.733 115.558 29.85zM457.933 571.238v-181.043l-305.306 136.090v175.77l305.357-59.648c0 0 0-70.554-0.051-71.168zM1135.974 245.35h-346.214v95.334h346.214v-95.334zM2201.702 403.046c0 0-151.757-136.038-151.757-248.525 0-93.030 64.973-170.906 151.757-170.906 86.733 0 153.498 72.704 153.498 170.906 0 130.509-153.498 248.525-153.498 248.525z" />
<glyph unicode="&#xe919;" glyph-name="Tire_Wheel" horiz-adv-x="1303" d="M251.904 763.485c-5.585 4.965-12.816 8.285-20.821 8.782-18.96 1.117-35.219-13.25-36.399-32.178-0.714-11.357 4.313-21.69 12.412-28.517 8.657-9.712 112.019-48.656 114.285-49.338 8.037-2.513 12.66 3.475 13.002 9.371 0.155 2.607-0.714 4.655-2.141 6.64l-80.337 85.24zM1022.076 933.872c-0.155 0.279-267.636 0.279-267.636 0.279-143.081-0.869-258.886-221.743-258.886-494.127 0-15.888 0.776-31.341 1.583-46.794 29.727 45.118 70.253 93.743 140.909 93.743 0.372 0 0.652-0.031 0.993-0.031 10.799 115.433 61.099 202.907 121.918 202.907 68.67 0 124.338-111.461 124.338-248.894s-55.668-248.894-124.338-248.894c-54.768 0-101.035 70.997-117.636 169.363 5.492 2.389 11.264 4.406 17.656 5.399 15.422 2.451 28.827-1.396 40.898-11.698 16.291-13.902 27.71-38.726 27.71-60.292 0-20.852 16.849-37.702 37.702-37.702s37.702 16.849 37.702 37.702c0 44.063-20.728 89.119-54.117 117.636-28.61 24.483-64.76 34.692-101.655 28.858-72.176-11.419-106.589-66.684-136.968-115.464-36.243-58.213-61.657-93.867-124.494-93.867-71.68 0-109.878 59.020-109.878 107.086v23.273h25.631c16.725 0 30.41 13.684 30.41 30.441v130.079c78.6 34.444 133.523 112.795 133.523 204.055 0 123.128-99.731 222.86-222.829 222.86-123.035 0-222.829-99.731-222.829-222.86 0-87.288 50.362-162.63 123.439-199.184v-134.982c0-16.756 13.715-30.441 30.472-30.441h26.748v-23.273c0-91.353 70.842-182.489 185.251-182.489 64.016 0 105.689 25.321 136.564 57.903 43.039-159.185 130.048-268.195 230.617-268.195 0.465 0 0.838 0.124 1.303 0.124 0-0.155 266.24-0.155 266.24-0.155 143.050 0.559 258.979 221.432 258.979 493.785 0.062 272.725-116.084 493.847-259.32 493.847zM244.643 587.171c-77.172 0-139.76 62.588-139.76 139.729 0 77.203 62.619 139.792 139.76 139.792 77.203 0 139.76-62.588 139.76-139.792 0-77.141-62.526-139.729-139.76-139.729z" />
<glyph unicode="&#xe91a;" glyph-name="load2" d="M993.444 623.043c31.785-87.931 38.4-181.125 21.586-269.455-16.906-88.73-57.201-172.861-118.917-242.739-93.491-105.851-221.010-163.738-351.58-171.858s-264.1 33.659-369.92 127.109c-105.667 93.338-163.615 220.692-171.684 351.263-8.059 130.58 33.638 264.253 127.14 370.104 83.333 94.341 195.052 151.245 312.392 167.578 117.207 16.435 240.128-7.813 346.214-75.663l-93.706-146.432c-69.908 44.739-150.897 60.59-228.383 49.848-77.117-10.854-150.589-48.435-205.722-110.858-61.481-69.601-89.057-157.768-83.743-243.743 5.427-85.862 43.5-169.789 113.080-231.25 69.714-61.583 157.716-89.006 243.589-83.784 85.975 5.345 170.056 43.592 231.537 113.203 40.919 46.326 67.533 101.765 78.51 160.082 11.254 58.327 6.973 119.644-13.896 177.213l163.502 59.382z" />
<glyph unicode="&#xe91b;" glyph-name="load1" d="M1020.826 432.681c-1.321 71.066-16.241 141.916-43.807 206.705-27.484 64.84-67.348 123.566-116.306 172.104-48.937 48.568-106.967 86.958-169.748 112.292-62.781 25.416-130.273 37.571-196.946 36.096-66.683-1.352-133.069-16.343-193.782-43.95-60.764-27.525-115.814-67.461-161.28-116.47-45.507-48.978-81.449-107.039-105.144-169.851-23.788-62.781-35.113-130.222-33.7-196.925 1.321-66.714 15.391-133.028 41.298-193.669 25.815-60.703 63.252-115.671 109.189-161.085 45.896-45.435 100.291-81.295 159.089-104.909 58.778-23.716 121.876-34.98 184.32-33.505 62.474 1.362 124.457 15.473 181.176 41.349 56.74 25.815 108.155 63.222 150.6 109.097 42.465 45.865 75.981 100.157 97.997 158.833 13.425 35.564 22.518 72.714 27.32 110.326 1.27-0.072 2.58-0.133 3.86-0.133 36.372 0 65.864 30.464 65.864 68.035 0 1.905 0 5.663 0 5.663v0zM916.183 252.037c-24.125-56.545-59.126-107.766-102.031-150.067-42.885-42.291-93.645-75.663-148.429-97.556-54.774-21.975-113.469-32.369-171.715-30.904-58.235 1.393-115.855 14.612-168.561 38.779-52.726 24.084-100.506 58.952-139.93 101.714-39.455 42.742-70.513 93.297-90.88 147.814-20.449 54.518-30.075 112.886-28.662 170.875 1.331 57.989 13.711 115.231 36.27 167.608 22.497 52.408 55.050 99.891 94.925 139.049 39.854 39.188 86.979 70.011 137.748 90.194 50.77 20.265 105.093 29.768 159.099 28.324 54.016-1.393 107.264-13.732 155.945-36.178 48.722-22.385 92.867-54.743 129.27-94.372 36.424-39.608 65.034-86.405 83.753-136.776 18.77-50.381 27.546-104.243 26.143-157.85h0.246c-0.143-1.874-0.246-3.758-0.246-5.663 0-35.092 25.733-63.969 58.747-67.625-6.42-37.038-17.019-73.175-31.693-107.366z" />
<glyph unicode="&#xe91c;" glyph-name="transmission_fill" d="M512 959.578c-282.142 0-511.578-229.496-511.578-511.518 0-282.142 229.496-511.578 511.578-511.578s511.518 229.496 511.518 511.578c0 282.082-229.436 511.518-511.518 511.518zM782.818 274.161c0-20.42-15.902-36.984-35.418-36.984-19.456 0-35.298 16.565-35.298 36.984v133.903h-106.376v-133.903c0-20.42-15.902-36.984-35.418-36.984-19.456 0-35.298 16.565-35.298 36.984v133.903h-106.315v-133.903c0-20.42-15.842-36.984-35.358-36.984s-35.358 16.565-35.358 36.984v133.903h-136.072c-19.757 0-41.020 16.324-41.020 52.164v161.672c0 20.48 15.842 36.984 35.358 36.984s35.298-16.504 35.298-36.984v-139.866h106.376v139.866c0 20.48 15.842 36.984 35.358 36.984s35.358-16.504 35.358-36.984v-139.866h106.376v139.866c0 20.48 15.842 36.984 35.298 36.984 19.516 0 35.418-16.504 35.418-36.984v-139.866h106.376v139.866c0 20.48 15.842 36.984 35.298 36.984 19.516 0 35.418-16.504 35.418-36.984v-347.738z" />
<glyph unicode="&#xe91d;" glyph-name="drive_2" d="M817.815 489.803l73.969 71.74-75.415 73.427-73.788-71.981c-31.021 20.54-66.319 34.696-104.207 41.864v101.798h-106.376v-101.798c-38.069-7.168-73.306-21.263-104.087-41.864l-73.969 71.981-75.294-73.427 73.728-71.74c-20.781-30.118-35.358-64.271-42.767-101.496h-104.629v-103.484h104.689c7.409-36.924 21.986-71.198 42.767-101.316l-73.728-71.921 75.234-73.306 73.969 71.861c30.84-20.42 66.018-34.575 104.087-41.743v-101.858h106.376v101.858c38.008 7.048 73.246 21.263 104.207 41.623l73.788-71.74 75.475 73.306-73.969 71.921c20.962 29.997 35.599 64.331 42.707 101.316h104.809v103.544h-104.87c-7.168 37.165-21.685 71.319-42.707 101.436zM585.065 223.443c-64.030 0-116.073 50.899-116.073 113.363 0 62.283 51.983 113.001 116.073 113.001 64.211 0 116.314-50.718 116.314-113.001 0.12-62.464-52.043-113.363-116.314-113.363zM598.679 827.964c90.835 0 174.562-25.48 247.748-67.524l-57.766-59.874 234.677-20.721-25.178 238.472-76.981-80.053c-93.304 58.127-203.656 92.341-322.5 92.341-330.933 0-599.221-261.060-599.221-583.198 0-134.626 47.345-258.048 125.892-356.834l75.234 73.186c-59.874 79.511-96.316 176.851-96.316 283.166 0.060 265.758 221.425 481.039 494.411 481.039z" />
<glyph unicode="&#xe91e;" glyph-name="engine_fill" d="M421.726 715.803h55.727l4.365-40.744h125.413l3.503 40.744h56.589c11.48 0 20.857 9.378 20.857 20.857v55.943c0 11.533-9.378 20.911-20.857 20.911h-245.598c-11.48 0-20.911-9.378-20.911-20.911v-55.943c0-11.48 9.432-20.857 20.911-20.857zM976.303 559.293h-72.866c-11.48 0-20.857-9.432-20.857-20.911v-61.763h-51.793v131.288c-0.431 20.749-8.084 27.648-25.869 27.648h-389.659c-24.091 0-42.038-6.845-57.29-26.408-22.42-28.941-47.266-56.051-70.656-83.375h-88.226c-13.797 0-24.468-4.635-25.6-25.654v-74.321h-53.302v59.661c0 11.48-9.378 20.911-20.857 20.911h-51.685c-11.48 0-20.857-9.432-20.857-20.911v-249.91c0-11.48 9.378-20.911 20.857-20.911h51.685c11.48 0 20.857 9.432 20.857 20.911v59.715h53.356v-76.8c0-18.001 4.797-25.061 25.762-25.546h88.333c27.109-31.69 53.41-61.709 78.74-92.483 10.725-12.989 24.792-17.947 39.667-17.947 84.884 0.701 169.768 0.701 254.707 0 15.414 0 30.343 5.336 42.954 18.109 38.804 39.343 72.542 73.027 95.070 100.083 19.348 23.121 32.121 32.337 32.121 74.536v8.947h51.793v-61.709c0-11.48 9.378-20.911 20.857-20.911h72.866c11.48 0 20.911 9.432 20.911 20.911v315.985c-0.108 11.48-9.539 20.857-21.019 20.857zM714.267 522.159h-276.803l-36.433-41.715c-4.096-4.743-9.917-7.168-15.737-7.168-4.851 0-9.755 1.725-13.689 5.174-8.731 7.545-9.593 20.749-1.994 29.427l42.631 48.829c3.934 4.581 9.701 7.168 15.683 7.168h286.343c11.533 0 20.911-9.378 20.911-20.911s-9.378-20.803-20.911-20.803z" />
<glyph unicode="&#xe91f;" glyph-name="grid" d="M384.137 960.819h-340.787c-23.415 0-42.598-19.524-42.598-43.349v-346.658c0-23.893 19.183-43.349 42.598-43.349h340.855c23.415 0 42.598 19.456 42.598 43.349v346.658c-0.068 23.825-19.183 43.349-42.667 43.349zM341.538 614.161h-255.59v259.959h255.659v-259.959zM980.651 960.819h-340.855c-23.415 0-42.598-19.524-42.598-43.349v-346.658c0-23.893 19.183-43.349 42.598-43.349h340.855c23.484 0 42.598 19.456 42.598 43.349v346.658c0 23.825-19.115 43.349-42.598 43.349zM938.052 614.161h-255.659v259.959h255.659v-259.959zM384.137 368.538h-340.787c-23.415 0-42.598-19.456-42.598-43.349v-346.658c0-23.825 19.183-43.349 42.598-43.349h340.855c23.415 0 42.598 19.524 42.598 43.349v346.658c-0.068 23.893-19.183 43.349-42.667 43.349zM341.538 21.879h-255.59v259.959h255.659v-259.959zM980.651 368.538h-340.855c-23.415 0-42.598-19.456-42.598-43.349v-346.658c0-23.825 19.183-43.349 42.598-43.349h340.855c23.484 0 42.598 19.524 42.598 43.349v346.658c0 23.893-19.115 43.349-42.598 43.349zM938.052 21.879h-255.659v259.959h255.659v-259.959z" />
<glyph unicode="&#xe920;" glyph-name="list" horiz-adv-x="1280" d="M419.755 788.907h776.277c46.251 0 83.712 37.035 83.712 82.603s-37.461 82.603-83.712 82.603h-776.277c-46.251 0-83.712-37.035-83.712-82.603s37.461-82.603 83.712-82.603zM90.88 960.939c-23.979 0-47.275-9.472-64.171-26.197-16.896-16.555-26.539-39.765-26.539-63.317 0-23.467 9.643-46.507 26.539-63.061 16.896-16.64 40.192-26.368 64.171-26.368 23.893 0 47.189 9.643 64.085 26.368 16.896 16.555 26.624 39.595 26.624 63.061 0 23.552-9.728 46.763-26.624 63.317-16.896 16.64-40.192 26.197-64.085 26.197zM90.88 534.613c-23.979 0-47.275-9.045-64.171-25.003-16.896-15.872-26.539-38.059-26.539-60.416 0-22.528 9.643-44.459 26.539-60.331 16.896-15.957 40.192-25.173 64.171-25.173 23.893 0 47.189 9.216 64.085 25.173 16.896 15.787 26.624 37.803 26.624 60.331 0 22.443-9.728 44.544-26.624 60.416s-40.192 25.003-64.085 25.003zM1196.117 528.043h-776.363c-46.251 0-83.712-35.328-83.712-78.933s37.461-78.763 83.712-78.763h776.277c46.251 0 83.712 35.243 83.712 78.848s-37.376 78.848-83.627 78.848zM90.88 113.664c-23.979 0-47.275-9.472-64.171-26.112s-26.539-39.851-26.539-63.317c0-23.552 9.643-46.507 26.539-63.147s40.192-26.368 64.171-26.368c23.893 0 47.189 9.643 64.085 26.368s26.624 39.595 26.624 63.147c0 23.467-9.728 46.677-26.624 63.317s-40.192 26.112-64.085 26.112zM1196.117 106.837h-776.363c-46.251 0-83.712-37.035-83.712-82.603s37.461-82.603 83.712-82.603h776.277c46.251 0 83.712 37.035 83.712 82.603s-37.376 82.603-83.627 82.603z" />
<glyph unicode="&#xe921;" glyph-name="author" d="M1009.737 849.701l-91.648 95.451c-9.509 9.874-21.943 14.775-34.304 14.775-12.434 0-24.869-4.901-34.304-14.775l-73.289-76.215 160.183-166.766 73.289 76.142c18.944 19.749 18.944 51.785 0.073 71.387zM300.617 373.687l160.183-166.766 441.344 459.483-160.256 166.766-441.271-459.483zM266.021 338.066l-34.231-202.459 194.414 35.547-160.183 166.912zM708.827 45.495h-603.941v630.053h426.277l105.106 109.349h-568.466c-37.303 0-67.803-31.744-67.803-70.656v-707.365c0-38.912 30.501-70.802 67.803-70.802h678.107c37.376 0 67.803 31.89 67.803 70.802v505.71l-104.887-109.129v-357.961z" />
<glyph unicode="&#xe922;" glyph-name="date" d="M646.656 851.895h-269.312v-107.666h269.312v107.666zM754.322 744.229c29.696 0 53.833 24.137 53.833 53.833v107.739c0 29.769-24.137 53.833-53.833 53.833-29.769 0-53.833-24.064-53.833-53.833v-107.739c0-29.696 24.137-53.833 53.833-53.833zM731.282 229.23c40.302 0 72.997 32.695 72.997 72.997s-32.622 72.997-72.997 72.997c-40.302 0-72.85-32.695-72.85-72.997s32.622-72.997 72.85-72.997zM512.439 593.993c-40.229 0-72.923-32.622-72.923-72.923s32.695-72.997 72.923-72.997c40.302 0 72.997 32.695 72.997 72.997s-32.695 72.923-72.997 72.923zM731.282 448.073c40.302 0 72.997 32.695 72.997 72.997s-32.622 72.923-72.997 72.923c-40.302 0-72.85-32.622-72.85-72.923s32.549-72.997 72.85-72.997zM439.515 302.226c0-40.302 32.695-72.997 72.923-72.997 40.302 0 72.997 32.695 72.997 72.997s-32.622 72.997-72.997 72.997c-40.229 0-72.923-32.695-72.923-72.997zM269.678 744.229c29.696 0 53.833 24.137 53.833 53.833v107.739c0 29.769-24.137 53.833-53.833 53.833s-53.906-24.064-53.906-53.833v-107.739c0-29.696 24.137-53.833 53.906-53.833zM915.895 851.895h-53.833v-107.666h53.833v-700.123h-807.79v700.123h53.833v107.666h-53.833c-59.465 0-107.739-48.201-107.739-107.739v-700.123c0-59.465 48.201-107.739 107.739-107.739h807.863c59.465 0 107.739 48.201 107.739 107.739v700.197c-0.073 59.465-48.274 107.666-107.813 107.666zM220.672 521.070c0-40.302 32.695-72.997 72.997-72.997 40.229 0 72.923 32.695 72.923 72.997s-32.695 72.923-72.923 72.923c-40.375 0-72.997-32.622-72.997-72.923zM293.669 375.223c-40.302 0-72.997-32.695-72.997-72.997s32.695-72.997 72.997-72.997c40.229 0 72.923 32.695 72.923 72.997s-32.695 72.997-72.923 72.997z" />
<glyph unicode="&#xe923;" glyph-name="quotes3" d="M1024 64v768l-384-384v-384zM384 64v768l-384-384v-384z" />
<glyph unicode="&#xe924;" glyph-name="time" horiz-adv-x="1058" d="M1055.915 523.503c-3.652 7.748-11.503 12.698-20.173 12.698h-65.877c-41.916 225.382-241.527 396.766-480.802 396.766-269.653 0-489.097-217.566-489.097-484.932s219.409-484.898 489.097-484.898c174.012 0 336.35 92.877 423.561 242.381 12.322 21.060 5.018 48.026-16.213 60.245-21.265 12.151-48.469 4.983-60.723-16.077-71.407-122.334-204.22-198.383-346.624-198.383-220.638 0-400.179 177.971-400.179 396.732s179.541 396.766 400.179 396.766c190.020 0 349.286-132.164 389.803-308.565h-65.399c-8.636 0-16.452-4.983-20.139-12.698-3.652-7.782-2.458-16.896 3.072-23.484l111.138-132.233c4.233-5.018 10.479-7.919 17.067-7.919s12.868 2.901 17.067 7.919l111.172 132.233c5.564 6.588 6.724 15.701 3.072 23.45zM481.212 789.675c-22.767 0-41.199-18.773-41.199-41.916v-254.225c-18.603-13.312-30.857-35.191-30.857-60.041 0-40.448 32.324-73.318 72.055-73.318 10.889 0 21.129 2.662 30.413 7.066l143.223-84.139c6.451-3.789 13.517-5.598 20.582-5.598 14.199 0 28.023 7.509 35.669 20.958 11.366 20.002 4.642 45.636-15.053 57.242l-143.36 84.207c-1.911 22.153-13.244 41.506-30.242 53.589v254.259c-0.068 23.108-18.534 41.916-41.233 41.916zM481.212 402.091c-17.033 0-30.891 14.097-30.891 31.403 0 17.34 13.858 31.437 30.891 31.437 16.998 0 30.857-14.097 30.857-31.437 0-17.306-13.858-31.403-30.857-31.403z" />
<glyph unicode="&#xe925;" glyph-name="buoy-2" horiz-adv-x="1001" d="M975.193-12.86h-105.331l-176.454 700.404c0 0 0 0 0 0.029l-63.838 253.336c-2.879 11.432-13.188 19.465-24.994 19.465h-208.561c-11.806 0-22.086-8.034-24.965-19.465l-122.608-486.603c0 0 0-0.029 0-0.029l-117.684-467.138h-105.331c-14.225 0-25.771-11.518-25.771-25.743s11.547-25.771 25.771-25.771h949.767c14.225 0 25.771 11.547 25.771 25.771s-11.547 25.743-25.771 25.743zM183.883-12.86l53.414 212.102h525.994l53.443-212.102h-632.852zM306.463 473.771l45.812 181.724h296.068l45.784-181.724h-387.664z" />
<glyph unicode="&#xe926;" glyph-name="buoy" horiz-adv-x="956" d="M814.234-64.119h-672.968c-77.921 0-141.296 64.056-141.296 142.836v106.038c0 24.887 61.271 49.716 107.431 70.663l4.622 358.794c0 73.092 46.012 137.325 111.638 162.035-0.059 2.015-0.089 4.029-0.089 6.044v19.969c-0.030 86.988 69.981 157.769 156.050 157.769h196.255c86.069 0 156.050-70.781 156.050-157.769v-19.969c0-2.015-0.030-4.029-0.119-6.044 65.655-24.71 111.668-88.943 111.668-162.035l4.622-358.794c20.117 0 107.431-50.338 107.431-70.663v-106.038c0-78.781-63.374-142.836-141.296-142.836zM659.132 802.261c0 46.397-37.331 84.173-83.225 84.173h-196.315c-45.894 0-83.225-37.776-83.225-84.173v-19.969c0-7.525 0.978-14.844 2.844-21.777 0.267-0.918 0.533-1.837 0.77-2.755 10.399-34.487 42.161-59.611 79.61-59.611h196.315c37.45 0 69.211 25.124 79.61 59.611 0.237 0.918 0.474 1.837 0.77 2.755 1.867 6.933 2.844 14.251 2.844 21.777v19.969zM711.9 705.022c-26.784-47.997-77.714-80.499-135.992-80.499h-196.315c-58.278 0-109.208 32.502-135.992 80.499-34.813-15.555-58.752-50.871-58.752-90.81v-392.659h585.803v392.659c0 39.938-23.939 75.255-58.752 90.81zM882.704 147.958h-75.107c-0.178 0-0.356 0-0.533 0h-658.629c-0.178 0-0.356 0-0.533 0h-75.107v-69.24c0-38.161 30.695-69.24 68.47-69.24h672.968c37.776 0 68.47 31.080 68.47 69.24v69.24zM640.704 344.302h-325.907c-16.355 0-29.628 13.273-29.628 29.628s13.273 29.628 29.628 29.628h325.907c16.355 0 29.628-13.273 29.628-29.628s-13.273-29.628-29.628-29.628zM640.704 462.814h-325.907c-16.355 0-29.628 13.273-29.628 29.628s13.273 29.628 29.628 29.628h325.907c16.355 0 29.628-13.273 29.628-29.628s-13.273-29.628-29.628-29.628z" />
<glyph unicode="&#xe927;" glyph-name="car-relic" horiz-adv-x="1614" d="M1428.152 92.31c2.454 13.654 3.941 27.619 3.941 41.998 0 14.345-1.486 28.31-3.941 41.998h101.557c-6.395 248.637-72.521 279.54-197.894 338.165-22.365 10.439-46.077 21.535-70.965 34.463l-14.518 7.57-5.6 15.348c-66.195 182.097-240.549 304.428-433.81 304.428s-367.581-122.331-433.776-304.428l-5.6-15.348-14.518-7.57c-24.922-12.928-48.601-24.024-70.965-34.463-125.373-58.625-191.499-89.527-197.928-338.165h92.638c-2.454-13.688-3.941-27.653-3.941-41.998 0-14.38 1.486-28.345 3.941-41.998h-177.154v41.998c0 324.995 89.182 382.548 246.909 456.244 17.076 8.019 34.981 16.385 53.682 25.752 82.372 206.432 283.895 343.972 506.746 343.972s424.374-137.54 506.746-343.972c18.631-9.368 36.571-17.733 53.647-25.752 157.658-73.696 246.874-131.249 246.874-456.244v-41.998h-186.072zM410.478 332.859c95.058 0 174.665-67.197 193.988-156.552 2.938-13.55 4.563-27.584 4.563-41.998 0-14.449-1.625-28.448-4.563-41.998-19.323-89.389-98.964-156.587-193.988-156.587-95.058 0-174.665 67.197-194.022 156.587-2.938 13.55-4.563 27.55-4.563 41.998 0 14.414 1.625 28.448 4.563 41.998 19.323 89.355 98.93 156.552 194.022 156.552zM304.117 92.31c16.799-42.448 58.072-72.59 106.361-72.59s89.493 30.211 106.327 72.59c5.185 13.032 8.227 27.135 8.227 41.998s-3.042 28.967-8.227 41.998c-16.799 42.413-58.037 72.555-106.327 72.555s-89.527-30.177-106.361-72.555c-5.185-13.066-8.227-27.135-8.227-41.998s3.042-28.967 8.227-41.998zM960.743 176.307c-2.454-13.688-3.906-27.653-3.906-41.998 0-14.38 1.452-28.345 3.906-41.998h-316.561c2.42 13.654 3.906 27.619 3.906 41.998 0 14.345-1.486 28.31-3.906 41.998h316.561zM514.8 515.232c0 161.080 131.042 292.122 292.087 292.122 161.080 0 292.122-131.042 292.122-292.122v-41.998h-584.21v41.998zM1010.796 557.23c-19.53 94.678-103.492 166.127-203.874 166.127s-184.378-71.449-203.839-166.127h407.713zM1194.413 332.859c95.058 0 174.699-67.197 194.057-156.552 2.904-13.55 4.528-27.584 4.528-41.998 0-14.449-1.625-28.448-4.528-41.998-19.357-89.389-98.93-156.587-194.057-156.587-95.093 0-174.665 67.197-193.988 156.587-2.904 13.55-4.563 27.55-4.563 41.998 0 14.414 1.659 28.448 4.563 41.998 19.323 89.355 98.964 156.552 193.988 156.552zM1088.052 92.31c16.799-42.448 58.072-72.59 106.361-72.59s89.527 30.211 106.327 72.59c5.185 13.032 8.261 27.135 8.261 41.998s-3.076 28.932-8.261 41.998c-16.799 42.413-58.037 72.555-106.327 72.555s-89.493-30.177-106.361-72.555c-5.116-13.032-8.192-27.135-8.227-41.998 0-14.864 3.042-28.967 8.227-41.998z" />
<glyph unicode="&#xe928;" glyph-name="star" horiz-adv-x="1084" d="M1085.079 569.193l-391.288 28.792-148.48 361.833-148.42-361.833-391.349-28.792 299.61-252.506-93.425-379.603 333.583 205.824 333.643-205.824-93.425 379.603z" />
<glyph unicode="&#xe929;" glyph-name="barrette" horiz-adv-x="871" d="M308.438-64.545c-44.055 0-88.382 14.449-125.349 44.218l-77.314 62.265c-41.928 33.695-68.209 81.73-74.152 135.272-5.779 52.942 9.869 106.865 42.964 148.358l255.659 320.596c25.19 31.623 61.066 51.361 101.031 55.832 40.293 4.307 79.331-7.143 110.682-32.387l20.501-16.466c31.46-25.353 51.252-61.393 55.559-101.631 4.471-40.020-6.979-79.549-32.114-111.118l-184.561-231.287c-19.247-23.99-54.196-27.861-78.077-8.669-23.936 19.301-27.807 54.414-8.669 78.459l184.561 231.342c6.597 8.233 9.651 18.592 8.451 29.115-1.145 10.632-6.325 20.065-14.612 26.716l-20.501 16.411c-17.011 13.794-41.983 11.014-55.614-6.161l-255.714-320.596c-14.776-18.483-21.755-42.637-19.192-66.246 2.672-23.99 14.34-45.472 33.096-60.521l77.314-62.265c38.602-31.024 95.252-24.863 126.221 14.067l359.635 450.961c30.969 38.821 24.754 95.688-13.958 126.766l-212.422 170.93c-18.756 15.103-42.255 22.136-65.973 19.301-23.827-2.617-45.2-14.394-60.194-33.205l-287.283-360.344c-19.247-24.045-54.196-27.916-78.077-8.669-23.936 19.301-27.807 54.414-8.669 78.459l287.337 360.235c33.532 42.092 81.403 68.536 134.727 74.479 53.542 5.943 105.72-9.433 147.649-43.182l212.422-170.93c86.419-69.463 100.377-196.72 31.187-283.575l-359.58-451.016c-39.638-49.671-98.033-75.515-156.972-75.515z" />
<glyph unicode="&#xe92a;" glyph-name="ico_mag_reviews" horiz-adv-x="1081" d="M915.285 160.142v-186.596c0-0.018 0-0.039 0-0.061 0-15.61-9.584-28.982-23.189-34.551l-0.249-0.090c-4.276-1.698-9.226-2.732-14.403-2.844l-0.046-0.001c-10.411 0.115-19.845 4.208-26.872 10.828l0.020-0.019-214.016 211.627h-447.033c-0.356-0.002-0.777-0.004-1.198-0.004-103.598 0-187.656 83.661-188.299 187.107v427.297c0.643 103.508 84.701 187.168 188.299 187.168 0.421 0 0.842-0.001 1.263-0.004h701.83c0.356 0.002 0.777 0.004 1.198 0.004 103.598 0 187.656-83.661 188.299-187.107v-427.297c-0.508-95.477-72.21-174.052-164.697-185.367l-0.906-0.090zM1005.056 772.836c-0.387 62.293-50.974 112.641-113.321 112.641-0.161 0-0.321 0-0.482-0.001h-701.756c-0.119 0-0.26 0.001-0.401 0.001-62.358 0-112.958-50.341-113.377-112.601v-427.276c0.419-62.299 51.019-112.641 113.377-112.641 0.141 0 0.282 0 0.422 0.001h462.712c10.426-0.024 19.887-4.138 26.866-10.822l-0.014 0.013 160.37-158.151v131.982c0.223 20.472 16.87 36.981 37.374 36.981 0.181 0 0.361-0.001 0.541-0.004h14.025c0.136-0.001 0.296-0.001 0.457-0.001 62.347 0 112.934 50.348 113.32 112.604v427.273zM819.371 410.453h-557.682c-20.736 0-37.547 16.81-37.547 37.547s16.81 37.547 37.547 37.547h557.511c20.736 0 37.547-16.81 37.547-37.547s-16.81-37.547-37.547-37.547v0zM819.371 620.373h-557.682c-20.579 0-37.262 16.683-37.262 37.262s16.683 37.262 37.262 37.262h557.511c20.579 0 37.262-16.683 37.262-37.262s-16.683-37.262-37.262-37.262v0z" />
<glyph unicode="&#xe92b;" glyph-name="ico_mag_calendar" horiz-adv-x="1088" d="M1049.6-64h-1011.2c-20.915 0.172-37.867 16.9-38.399 37.711l-0.001 0.049v874.88c-0.003 0.19-0.005 0.415-0.005 0.64 0 21.208 17.192 38.4 38.4 38.4 0.002 0 0.004 0 0.006 0h196.672v33.28c0 21.208 17.192 38.4 38.4 38.4s38.4-17.192 38.4-38.4v0-33.28h470.272v33.28c0 21.208 17.192 38.4 38.4 38.4s38.4-17.192 38.4-38.4v0-33.28h190.656c0.002 0 0.003 0 0.005 0 21.208 0 38.4-17.192 38.4-38.4 0-0.225-0.002-0.45-0.006-0.674v0.034-873.6c0.003-0.19 0.005-0.415 0.005-0.64 0-21.208-17.192-38.4-38.4-38.4-0.002 0-0.004 0-0.006 0v0zM77.312 13.44h933.888v616.32h-934.4v-616.32zM1012.16 809.6h-152.704v-21.12c0-21.208-17.192-38.4-38.4-38.4s-38.4 17.192-38.4 38.4v21.12h-470.272v-21.12c0-21.208-17.192-38.4-38.4-38.4s-38.4 17.192-38.4 38.4v21.12h-158.784v-101.12h934.848v101.12zM821.056 371.84h-552.896c-21.738 0-39.36 17.622-39.36 39.36s17.622 39.36 39.36 39.36v0h552.64c21.738 0 39.36-17.622 39.36-39.36s-17.622-39.36-39.36-39.36v0zM268.416 261.12h276.288c0.138 0.002 0.301 0.003 0.464 0.003 20.96 0 37.952-16.992 37.952-37.952 0-0.384-0.006-0.766-0.017-1.147l0.001 0.056c0.003-0.19 0.005-0.415 0.005-0.64 0-21.208-17.192-38.4-38.4-38.4-0.002 0-0.004 0-0.006 0h-276.544c-0.002 0-0.003 0-0.005 0-21.208 0-38.4 17.192-38.4 38.4 0 0.225 0.002 0.45 0.006 0.674v-0.034c-0.010 0.325-0.016 0.707-0.016 1.091 0 20.96 16.992 37.952 37.952 37.952 0.163 0 0.326-0.001 0.488-0.003h-0.025z" />
<glyph unicode="&#xe92c;" glyph-name="ico_mag_clock" d="M512-62.795c-0.089 0-0.195 0-0.301 0-282.271 0-511.096 228.826-511.096 511.096s228.826 511.096 511.096 511.096c282.271 0 511.096-228.826 511.096-511.096 0-0.106 0-0.211 0-0.317v0.016c-0.137-282.049-228.746-510.658-510.782-510.795h-0.013zM512 887.718c-242.849 0-439.718-196.868-439.718-439.718s196.868-439.718 439.718-439.718c242.849 0 439.718 196.868 439.718 439.718v0c0 242.849-196.868 439.718-439.718 439.718v0zM658.372 387.765h-170.466c-19.96 0-36.141 16.181-36.141 36.141v0 246.362c0 20.127 16.316 36.442 36.442 36.442s36.442-16.316 36.442-36.442v0-209.619h133.722c20.127 0 36.442-16.316 36.442-36.442s-16.316-36.442-36.442-36.442v0z" />
<glyph unicode="&#xe92d;" glyph-name="ico_mag_eye" horiz-adv-x="1709" d="M1677.653 372.907c-54.548-63.292-113.49-119.799-177.376-170.33l-2.677-2.043c-131.716-114.862-291.796-200.721-468.206-245.745l-7.954-1.721c-48.91-10.859-105.086-17.080-162.715-17.080-1.596 0-3.19 0.005-4.783 0.014l0.245-0.001c-1.706-0.013-3.723-0.021-5.742-0.021-58.103 0-114.752 6.223-169.317 18.040l5.246-0.952c-183.546 47.782-342.872 133.479-475.92 248.709l1.466-1.242c-67.413 52.371-126.93 108.911-180.428 170.797l-1.332 1.576c-17.891 20.26-28.813 47.041-28.813 76.373s10.922 56.113 28.921 76.498l-0.108-0.125c16.213 19.627 34.987 39.253 56.32 60.587 101.155 104.189 217.543 192.824 345.734 262.488l7.546 3.752c77.824 42.316 168.039 75.671 263.263 95.324l6.391 1.103c42.329 7.614 91.053 11.968 140.793 11.968 2.102 0 4.203-0.008 6.301-0.023l-0.321 0.002c1.408 0.009 3.073 0.014 4.74 0.014 49.278 0 97.54-4.351 144.423-12.69l-4.95 0.73c101.525-20.164 191.806-53.569 274.615-98.915l-4.962 2.489c135.604-73.748 251.949-162.343 352.986-265.938l0.294-0.302c19.868-18.83 38.285-38.599 55.422-59.459l0.898-1.127c18.077-20.184 29.128-46.988 29.128-76.373s-11.051-56.189-29.224-76.482l0.096 0.109zM1600 457.387q-15.36 19.2-51.2 56.32c-93.133 95.902-200.578 177.218-319.031 240.658l-6.942 3.396c-69.684 38.102-150.456 68.194-235.73 86.031l-5.763 1.009c-38.092 7.342-82.024 11.677-126.92 11.946l-0.227 0.001c-45.319-0.096-89.561-4.439-132.429-12.653l4.429 0.706c-90.621-18.106-171.185-48.259-244.917-89.22l4.277 2.18c-126.255-67.030-234.51-148.338-328.343-243.859l-0.19-0.194c-4.267-5.973-13.653-15.36-24.747-27.307-8.427-8.858-16.53-18.314-24.128-28.178l-0.619-0.836c-2.717-1.717-4.495-4.704-4.495-8.107s1.778-6.39 4.456-8.083l0.039-0.023c49.869-59.302 104.108-111.918 163.215-158.648l2.332-1.778c120.512-103.921 266.386-181.964 426.918-223.643l7.429-1.637c43.045-9.765 92.477-15.361 143.217-15.361 0.35 0 0.7 0 1.050 0.001h2.506c51.711 0.059 102.082 5.651 150.597 16.214l-4.677-0.854c167.501 42.777 312.915 120.904 433.894 226.35l-1.254-1.070c62.051 48.616 116.834 101.234 165.936 158.843l1.317 1.584c2.169 2.030 3.521 4.911 3.521 8.107s-1.352 6.077-3.515 8.101l-0.006 0.006zM854.187 119.467c-0.589-0.004-1.286-0.006-1.983-0.006-179.417 0-324.864 145.447-324.864 324.864 0 1.292 0.008 2.583 0.023 3.872l-0.002-0.196c-0.046 2.023-0.072 4.408-0.072 6.798 0 89.062 36.239 169.66 94.776 227.853l0.016 0.016c57.406 59.512 137.85 96.469 226.926 96.469 1.821 0 3.639-0.015 5.453-0.046l-0.273 0.004c1.668 0.033 3.635 0.051 5.607 0.051 88.143 0 167.642-37.009 223.806-96.336l0.133-0.142c58.561-58.929 94.756-140.144 94.756-229.812 0-1.707-0.013-3.411-0.039-5.112l0.003 0.257c0.038-1.837 0.060-4.001 0.060-6.171 0-88.72-36.25-168.974-94.748-226.757l-0.032-0.032c-56.41-58.973-135.73-95.63-223.611-95.63-2.087 0-4.169 0.021-6.247 0.062l0.311-0.005zM1011.2 608.427c-40.088 41.079-96.002 66.557-157.867 66.557s-117.779-25.477-157.823-66.512l-0.043-0.044c-40.605-40.945-65.697-97.329-65.697-159.573s25.092-118.628 65.712-159.589l-0.015 0.015c39.582-41.067 95.066-66.571 156.508-66.571 0.778 0 1.555 0.004 2.331 0.012l-0.119-0.001c1.211-0.025 2.637-0.039 4.067-0.039 60.172 0 114.456 25.215 152.86 65.655l0.086 0.091c40.117 41.323 64.85 97.773 64.85 160s-24.733 118.677-64.905 160.056l0.054-0.056z" />
<glyph unicode="&#xe92e;" glyph-name="ico_mag_map_pin" horiz-adv-x="808" d="M425.768-54.838c-5.463-5.633-13.102-9.129-21.558-9.129s-16.095 3.496-21.551 9.121l-0.007 0.008c-15.576 16.168-382.653 402.594-382.653 616.017 0 223.239 180.971 404.211 404.211 404.211s404.211-180.971 404.211-404.211v0c0-213.423-367.023-599.848-382.653-616.017zM404.211 901.794c-0.483 0.002-1.055 0.004-1.627 0.004-188.658 0-341.775-152.175-343.298-340.474l-0.001-0.145c0-147.672 231.747-429.541 344.926-552.96 113.179 123.419 344.926 405.288 344.926 552.96-1.524 188.444-154.64 340.619-343.299 340.619-0.572 0-1.144-0.001-1.716-0.004h0.088zM404.211 436.143c-92.186 1.276-166.427 76.306-166.427 168.675 0 93.165 75.525 168.691 168.691 168.691 93.16 0 168.682-75.517 168.691-168.674v-0.001c-0.884-93.354-76.767-168.692-170.246-168.692-0.249 0-0.498 0.001-0.746 0.002h0.038zM404.211 715.318c-60.241-0.821-108.759-49.847-108.759-110.205 0-60.87 49.345-110.215 110.215-110.215 60.772 0 110.056 49.186 110.214 109.92v0.015c-0.397 61.104-50.023 110.485-111.183 110.485-0.171 0-0.343 0-0.514-0.001h0.026z" />
</font>
</defs>
</svg>
